Абдулладжан, или Посвящается Стивену Спилбергу (Зульфикар Мусаков) [1991 г., Фантастика, комедия, DVB]

Страницы :  1, 2  След.

Ответить на тему
 

abduvalixon ®

Стаж: 6 лет 6 месяцев

Сообщений: 36

Симпатии: 2

Абдулладжан, или Посвящается Стивену Спилбергу
Год выпуска: 1991
Жанр: Фантастика, комедия
Продолжительность: 01:27:42
Перевод: Профессиональный (многоголосый, закадровый)
Режиссер: Зульфикар Мусаков
В ролях: Тути Юсупова, Раджаб Адашев, Шухрат Каюмов, Мирхосил Орипов, Туйчи Арипов, Джавлон Хамраев, Ходжиакбар Нурматов, Джамал Хашимов, Сергей Дрейден, Галина Луковникова-Мамедова, Аброр Турсунов, Закир Муминов, Владимир Меньшов, Валерий Цветков, Юлдуз Хамидова, Ульмас Юсупов
Описание: Сторож сельмага, посмотрев в местном видеосалоне фильм Стивена Спилберга, решил написать письмо в Голливуд о том, что произошло в его кишлаке. А произошло буквально следующее: колхоз «Коммунизм» посетил инопланетянин, которого все с нетерпением ждали и организовали поиск, как только получили из центра телеграмму о его возможном приземлении. Базарбай, нашедший инопланетянина, дал ему имя Абдулладжан и привел в свой дом...
Качество: DVB
Формат: MPEG-PS
Видео кодек: MPEG2
Аудио кодек: MPEG Audio
Видео: MPEG2 Video, 704x576 (4:3), 1942 Kbps, 25000 fps,
Аудио: MPEG Audio, 48000 Hz, mono, 192 Kbps, 48.0 KHz

MediaInfo

Format : MPEG-PS
File size : 1.33 GiB
Duration : 1h 27mn
Overall bit rate : 2 177 Kbps
Writing library : encoded by TMPGEnc (ver. 2.524.63.181)
Video #224
ID : 224 (0xE0)
Format : MPEG Video
Format version : Version 2
Format profile : [email protected]
Format settings, BVOP : Yes
Format settings, Matrix : Custom
Duration : 1h 27mn
Bit rate mode : Variable
Bit rate : 1 942 Kbps
Width : 704 pixels
Height : 576 pixels
Display aspect ratio : 4:3
Frame rate : 25.000 fps
Standard : PAL
Color space : YUV
Chroma subsampling : 4:2:0
Bit depth : 8 bits
Compression mode : Lossy
Bits/(Pixel*Frame) : 0.192
Stream size : 1.19 GiB (89%)
Writing library : TMPGEnc 2.524.63.181
Audio #192
ID : 192 (0xC0)
Format : MPEG Audio
Format version : Version 1
Format profile : Layer 2
Mode extension : Intensity Stereo + MS Stereo
Duration : 1h 27mn
Bit rate mode : Constant
Bit rate : 192 Kbps
Channel(s) : 1 channel
Sampling rate : 48.0 KHz
Compression mode : Lossy
Stream size : 120 MiB (9%)

Скриншоты




Создавать темы 09-Ноя-2012 21:25

[Профиль]  [ЛС] 

ReVoLL

Стаж: 5 лет 8 месяцев

Сообщений: 7

наверно самый популярный узб. фильм) классная комедия

Создавать темы 09-Ноя-2012 23:39

[Профиль]  [ЛС] 

knyaz31337

Стаж: 6 лет 6 месяцев

Сообщений: 396

Симпатии: 20

С Шухратом Каюмовым и с его братьями — Хамидом и Наби Каюмовыми я свое детство на Дархане провел. Хорошее время тогда было...

Создавать темы 09-Ноя-2012 23:50

[Профиль]  [ЛС] 

fr0st

Стаж: 7 лет 10 месяцев

Сообщений: 51

наверно самый популярный узб. фильм) классная комедия
Один из самых популярных

Создавать темы 10-Ноя-2012 05:40

[Профиль]  [ЛС] 

4egod

Стаж: 6 лет 11 месяцев

Сообщений: 6

ооо да ето бомба !!! я в поезде его 100500 раз видел !!!

Создавать темы 11-Ноя-2012 00:49

[Профиль]  [ЛС] 

slaiderUZ

Стаж: 5 лет 10 месяцев

Сообщений: 172

Симпатии: 6

зачетный фильм))))))

_________________
Подпись отключена за нарушение правил форума

Создавать темы 11-Ноя-2012 19:56

[Профиль]  [ЛС] 

Nastya Lou

Стаж: 5 лет 7 месяцев

Сообщений: 42

Симпатии: 1

Эге....вот спасибо!!!!Посмеемся!!!!

Создавать темы 14-Ноя-2012 15:50

[Профиль]  [ЛС] 

Optimus Prime

Стаж: 5 лет

Сообщений: 32

Симпатии: 4

перевот какой

Создавать темы 22-Ноя-2012 22:03

[Профиль]  [ЛС] 

vanagrex

Стаж: 5 лет 8 месяцев

Сообщений: 118

Симпатии: 20

Фильм замечательный! Смотрел раньше. Здесь не смог докачать,к сожалению, места не хватило на хардах.

Создавать темы 23-Ноя-2012 13:28

[Профиль]  [ЛС] 

aXisss

Стаж: 6 лет 9 месяцев

Сообщений: 9

дорога оригинальная есть?

Создавать темы 27-Ноя-2012 01:13

[Профиль]  [ЛС] 

saylep

Стаж: 5 лет 8 месяцев

Сообщений: 31

Люди,,, кто раздает??

Создавать темы 04-Дек-2012 00:02

[Профиль]  [ЛС] 

schweppes

Стаж: 4 года 10 месяцев

Сообщений: 72

оригинальную бы дорожку.

Создавать темы 25-Апр-2013 06:27

[Профиль]  [ЛС] 

Bars300

Стаж: 4 года 10 месяцев

Сообщений: 49

Симпатии: 3

а что со звуком?

Создавать темы 08-Июл-2013 19:01

[Профиль]  [ЛС] 

feruzbek777

Стаж: 5 лет 9 месяцев

Сообщений: 5

фильм на русском или на узб?

Создавать темы 11-Фев-2014 17:23

[Профиль]  [ЛС] 

yozhik

Стаж: 4 года 6 месяцев

Сообщений: 82

Симпатии: 65

Зульфикар Мусаков годные фильмы снимает

Создавать темы 30-Май-2014 15:18

[Профиль]  [ЛС] 
Показать сообщения:    
Ответить на тему

Текущее время: 19-Ноя 21:19

Часовой пояс: UTC + 5



Вы не можете начинать темы
Вы не можете отвечать на сообщения
Вы не можете редактировать свои сообщения
Вы не можете удалять свои сообщения
Вы не можете голосовать в опросах
Вы не можете прикреплять файлы к сообщениям
Вы не можете скачивать файлы