Судный день / Doomsday [Режисёрская версия / Director's Cut] (Нил Маршалл) [2008 г., фантастика..., BDRip 720p]

Ответить на тему
 

Robot-IX ®

Стаж: 5 лет 6 месяцев

Сообщений: 223

Симпатии: 9

Судный день / Doomsday [Режисёрская версия / Director's Cut]«У человечества есть срок годности...»- Год выпуска: 2008
Страна: США, Великобритания, Германия, ЮАР
Жанр: фантастика, боевик, триллер
Продолжительность: 01:52:49
Перевод: Профессиональный (многоголосый, закадровый) + оригинал-Режиссер: Нил Маршалл
В ролях: Рона Митра, Боб Хоскинс, Дэвид О’Хара, Адриан Лестер, Рик Уорден, Шон Пертуи, Даррен Морфитт, МайАнна Бёринг, Малкольм МакДауэлл, Кэрин Петерсон
Описание: Великобритания, недалёкое будущее. Смертельный и совершенно неизученный вирус, названный «Жнецом» («Reaper Virus») обрушился на страну, убивая десятки и сотни тысяч жителей. Не имея возможности решить проблему, правительство решает изолировать очаг заразы от не инфицированной местности, построив вокруг территории буйства «Жнеца» стену.
Проходит 30 лет, но вирус снова заявил о себе. Тогда было решено послать в заражённую область первоклассную команду спецназа для поисков возможных методов борьбы с вирусом. Ради выполнения цели и сохранения жизней ребятам придется пробиваться через настоящий оживший кошмар…-Рейтинг:
kinopoisk.ru: 6.313 (9 847)
imdb.com: 6.0 (46 559)
MPAA: R - Лицам до 17 лет обязательно присутствие взрослого-Качество: BDRip 720p
Формат: MKV
Видео кодек: H.264/AVC
Аудио кодек: AC3
Видео: 1280x544 (2,35:1), 3910 Kbps, 23,976 fps
Аудио Rus: 6 ch, 448 Kbps, 48,0 KHz | Многоголосый, закадровый
Аудио Eng: 2 ch, 128 Kbps, 48,0 KHz | Оригинал
Субтитры Rus: UTF8
Субтитры Eng: UTF8-

Знаете ли Вы, что...

  • Съёмки проходили с 9 февраля по май 2007 года в ЮАР и Великобритании.
  • В начале фильма отряд DDS проникает на борт сухогруза. При этом можно заметить, что корабль имеет русское название: на борту большими черными буквами написано «Первый раз».

Media Info

Общее
Уникальный идентификатор : 234936711524209522148746906767124328377 (0xB0BF2A2EC31D96B2A4F452871FD7EFB9)
Полное имя : D:\Torent\Sudniy_den.2008.BDRip-AVC.mkv
Формат : Matroska
Версия формата : Version 2
Размер файла : 3,61 Гбайт
Продолжительность : 1 ч. 52 м.
Общий поток : 4577 Кбит/сек
Название фильма : Судный день / Doomsday (2008) BDRip-AVC от FireBit
Дата кодирования : UTC 2012-08-10 08:24:17
Программа кодирования : mkvmerge v5.0.0 ('Die Wahre Liebe') built on Oct 5 2011 16:09:48
Библиотека кодирования : libebml v1.2.2 + libmatroska v1.3.0
Видео
Идентификатор : 1
Формат : AVC
Формат/Информация : Advanced Video Codec
Профиль формата : [email protected]
Параметр CABAC формата : Да
Параметр ReFrames формата : 6 кадров
Параметр GOP формата : N=1
Режим смешивания : Header stripping
Идентификатор кодека : V_MPEG4/ISO/AVC
Продолжительность : 1 ч. 52 м.
Битрейт : 3910 Кбит/сек
Ширина : 1280 пикселей
Высота : 544 пикселя
Соотношение сторон : 2,35:1
Частота кадров : 23,976 кадра/сек
Цветовое пространство : YUV
Субдискретизация насыщенности : 4:2:0
Битовая глубина : 8 бит
Тип развёртки : Прогрессивная
Бит/(Пиксели*Кадры) : 0.234
Размер потока : 3,08 Гбайт (85%)
Заголовок : http://firebit.org
Язык : English
Default : Да
Forced : Нет
Аудио #1
Идентификатор : 2
Формат : AC-3
Формат/Информация : Audio Coding 3
Расширение режима : CM (complete main)
Параметр Endianness формата : Big
Режим смешивания : Header stripping
Идентификатор кодека : A_AC3
Продолжительность : 1 ч. 52 м.
Вид битрейта : Постоянный
Битрейт : 448 Кбит/сек
Каналы : 6 каналов
Расположение каналов : Front: L C R, Side: L R, LFE
Частота : 48,0 КГц
Битовая глубина : 16 бит
Метод сжатия : С потерями
Задержка видео : 13 мс.
Размер потока : 362 Мбайт (10%)
Заголовок : http://firebit.org
Язык : Russian
Default : Да
Forced : Нет
Аудио #2
Идентификатор : 3
Формат : AC-3
Формат/Информация : Audio Coding 3
Расширение режима : CM (complete main)
Параметр Endianness формата : Big
Режим смешивания : Header stripping
Идентификатор кодека : A_AC3
Продолжительность : 1 ч. 52 м.
Вид битрейта : Постоянный
Битрейт : 128 Кбит/сек
Каналы : 2 канала
Расположение каналов : Front: L R
Частота : 48,0 КГц
Битовая глубина : 16 бит
Метод сжатия : С потерями
Задержка видео : 13 мс.
Размер потока : 103 Мбайт (3%)
Заголовок : http://firebit.org
Язык : English
Default : Нет
Forced : Нет
Текст #1
Идентификатор : 4
Формат : UTF-8
Идентификатор кодека : S_TEXT/UTF8
Идентификатор кодека/Информация : UTF-8 Plain Text
Заголовок : http://firebit.org
Язык : Russian
Default : Нет
Forced : Нет
Текст #2
Идентификатор : 5
Формат : UTF-8
Идентификатор кодека : S_TEXT/UTF8
Идентификатор кодека/Информация : UTF-8 Plain Text
Заголовок : http://firebit.org
Язык : English
Default : Нет
Forced : Нет

Скриншоты






Последний раз редактировалось: Robot-IX (2013-07-02 21:07), всего редактировалось 2 раз(а)

Создавать темы 10-Ноя-2012 14:48

[Профиль]  [ЛС] 

Mixer City

Стаж: 6 лет 10 месяцев

Сообщений: 754

Симпатии: 63

Robot-IX, подправил слегка.

Создавать темы 10-Ноя-2012 17:40

[Профиль]  [ЛС] 

Robot-IX ®

Стаж: 5 лет 6 месяцев

Сообщений: 223

Симпатии: 9

ок ! спасибо

Создавать темы 10-Ноя-2012 18:28

[Профиль]  [ЛС] 

andiman

Стаж: 4 года 11 месяцев

Сообщений: 134

Симпатии: 1

все расписано в подробностях.... лучше б бюджет фильма написал... "тв3" походу...

Создавать темы 10-Ноя-2012 20:45

[Профиль]  [ЛС] 

Robot-IX ®

Стаж: 5 лет 6 месяцев

Сообщений: 223

Симпатии: 9

все расписано в подробностях.... лучше б бюджет фильма написал... "тв3" походу...
щелкунчик... )) от меня тебе словом - бан, за тв3
и не всё решает бюджет!
1 есть возрастное понятие к просмотру фильмов...
2 есть жанровое предрасположение...
3 на вкус и цвет, товарища нет !

Создавать темы 10-Ноя-2012 21:04

[Профиль]  [ЛС] 

andiman

Стаж: 4 года 11 месяцев

Сообщений: 134

Симпатии: 1

все расписано в подробностях.... лучше б бюджет фильма написал... "тв3" походу...
щелкунчик... )) от меня тебе словом - бан, за тв3
и не всё решает бюджет!
1 есть возрастное понятие к просмотру фильмов...
2 есть жанровое предрасположение...
3 на вкус и цвет, товарища нет !
В чем вопрос? Бюджет, касаемо упомянутого жанра, решает многое... А мало бюджетная фантастика, в большинстве своем, это и есть"ТВ3", за редким исключением (редчайшим). Потому не ясна суть предъявления в мой адрес? Так можно узнать размер вложенных в фильм денег? Или может кто смотрел, и замолвит слово о фильме, стоит вообще его качать или нет?

Создавать темы 10-Ноя-2012 22:41

[Профиль]  [ЛС] 

Robot-IX ®

Стаж: 5 лет 6 месяцев

Сообщений: 223

Симпатии: 9

все расписано в подробностях.... лучше б бюджет фильма написал... "тв3" походу...
щелкунчик... )) от меня тебе словом - бан, за тв3
и не всё решает бюджет!
1 есть возрастное понятие к просмотру фильмов...
2 есть жанровое предрасположение...
3 на вкус и цвет, товарища нет !
В чем вопрос? Бюджет, касаемо упомянутого жанра, решает многое... А мало бюджетная фантастика, в большинстве своем, это и есть"ТВ3", за редким исключением (редчайшим). Потому не ясна суть предъявления в мой адрес? Так можно узнать размер вложенных в фильм денег? Или может кто смотрел, и замолвит слово о фильме, стоит вообще его качать или нет?
Принято! так нужно было подробно и обьяснить ))

Создавать темы 10-Ноя-2012 22:51

[Профиль]  [ЛС] 

Robot-IX ®

Стаж: 5 лет 6 месяцев

Сообщений: 223

Симпатии: 9

Кто смотрел Безумный МАХ, эта тема будет близка...!

Создавать темы 11-Ноя-2012 12:06

[Профиль]  [ЛС] 

havahej

Стаж: 5 лет 8 месяцев

Сообщений: 7

Это вот и есть то самое редкое исключение, когда малый бюджет и когда фильм хороший. Фильм отличный - качать стоит!!! Что я щас собсна и сделаю)))
P.S.: В жанр ещё можно было бы добавить - постапокалиптика... хотя темы ядерной войны тут нет. Но с Безумным Максом, да, есть что то общее

Создавать темы 12-Ноя-2012 07:53

[Профиль]  [ЛС] 

Robot-IX ®

Стаж: 5 лет 6 месяцев

Сообщений: 223

Симпатии: 9

Это вот и есть то самое редкое исключение, когда малый бюджет и когда фильм хороший. Фильм отличный - качать стоит!!! Что я щас собсна и сделаю)))
P.S.: В жанр ещё можно было бы добавить - постапокалиптика... хотя темы ядерной войны тут нет. Но с Безумным Максом, да, есть что то общее
Да!

Создавать темы 12-Ноя-2012 10:33

[Профиль]  [ЛС] 

andiman

Стаж: 4 года 11 месяцев

Сообщений: 134

Симпатии: 1

попробуем...

Создавать темы 15-Ноя-2012 20:36

[Профиль]  [ЛС] 

Дмитриев

Стаж: 7 лет 4 месяца

Сообщений: 139

Симпатии: 12

Robot-IX Спасибо за супер релиз давно ждал этот фильм az az az

Создавать темы 08-Сен-2013 22:56

[Профиль]  [ЛС] 
Показать сообщения:    
Ответить на тему

Текущее время: 23-Окт 03:56

Часовой пояс: UTC + 5



Вы не можете начинать темы
Вы не можете отвечать на сообщения
Вы не можете редактировать свои сообщения
Вы не можете удалять свои сообщения
Вы не можете голосовать в опросах
Вы не можете прикреплять файлы к сообщениям
Вы не можете скачивать файлы