[#224] Рестлер / The Wrestler (Даррен Аронофски) [2008 г., драма, спорт] BDRip-AVC

Ответить на тему
 

barcamol ®

Стаж: 5 лет 8 месяцев

Сообщений: 29

Симпатии: 15

Рестлер / The Wrestler-«Любовь. Боль. Слава.»
-Год выпуска: 2008
Страна: США , Франция
Жанр: драма, мелодрама, спорт
Продолжительность: 01:49:32
Перевод: русский (полное дублирование)
Субтитры: русские, english-Режиссер: Даррен Аронофски
Сценарий: Роберт Д. Сигел
Продюсер: Даррен Аронофски, Скотт Франклин, Ивэн Гинзбург
Оператор: Мариза Альберти
Композитор: Клинт Мэнселл
Художник: Тим Граймс, Мэттью Мунн, Эми Весткотт
Монтаж: Эндрю Вайсблум-В ролях: Микки Рурк, Мариса Томей, Ивэн Рэйчел Вуд, Марк Марголис, Тодд Бэрри, Уасс М. Стивенс, Джуда Фридлендер, Эрнест Миллер, Дилан Кит Саммерс, Томми Фарра-Описание: Главный герой фильма — Рэнди «Баран» Робинсон — был звездой 80-х, но стал бледной копией самого себя. Получив инфаркт во время одного из матчей, борец услышал от врачей неприятную весть: если он продолжит выступления, то может умереть. Пытаясь начать жизнь заново, Рэнди устроился работать в магазин и налаживал отношения с дочерью. Но уж больно заманчивой была перспектива матча-реванша со старым соперником по кличке Аятолла…-Доп. информация:
бюджет: $6 000 000
сборы в США: $26 238 243
сборы в мире: $44 703 995
сборы в России: $656 009
DVD в США: $12 254 553
премьера (мир): 5 сентября 2008
премьера (РФ): 26 марта 2009, «Вольга»
релиз на DVD: 23 апреля 2009, «CP-Digital»
релиз на Blu-Ray: 23 апреля 2009, «CP-Digital»
-Качество: BDRip-AVC
Формат: Matroska
Видео кодек: Advanced Video Codec
Аудио кодек: Audio Coding 3
Видео: AVC, [email protected], 2108 Kbps, 1056x440 pixels, 23.976 fps, Bits/(Pixel*Frame): 0.189
Аудио 1: AC3, 448 Kbps, 6 channels, Front: L C R, Side: L R, LFE, 48.0 KHz | русский (дублирование)
Аудио 2: AC3, 448 Kbps, 6 channels, Front: L C R, Side: L R, LFE, 48.0 KHz | english (original)-

Награды и номинации

Оскар, 2009 год
Номинации (2):
Лучшая мужская роль (Микки Рурк)
Лучшая женская роль второго плана (Мариса Томей)
Золотой глобус, 2009 год
Победитель (2):
Лучшая мужская роль (драма) (Микки Рурк)
Лучшая песня — «The Wrestler»
Номинации (1):
Лучшая женская роль второго плана (Мариса Томей)
Премия канала «MTV», 2009 год
Номинации (1):
Лучшая песня — «The Wrestler»
Британская академия, 2009 год
Победитель (1):
Лучшая мужская роль (Микки Рурк)
Номинации (1):
Лучшая женская роль второго плана (Мариса Томей)
Венецианский кинофестиваль, 2008 год
Победитель (1):
Золотой лев
-

Знаете ли вы, что...

На главную роль претендовал Николас Кейдж.
Тренером Микки Рурка был Афа Анойа.
Сценарист фильма Роберт Д. Сигел снялся в фильме в небольшой роли фаната, который взял автограф у Рэнди Робинсона.
Актриса Мариса Томей, сыгравшая подругу Рэнди, училась с режиссером фильма Дарреном Аронофски в одной школе (средняя школа Эдварда Мэроу в Нью-Йорке).
Стоит отметить, что имя главного героя по сюжету также является псевдонимом. Настоящее же имя Рэнди — Робин Рэмзински.
На дверях дома Ренди висел постер с гитаристом австралийской рок-группы AC/DC — Ангусом Янгом.
-

Media Info

General
Unique ID : 250448372344212735898402122977335314050 (0xBC6A9A1B7F52A585B56FD42912400682)
Format : Matroska
Format version : Version 4 / Version 2
File size : 2.34 GiB
Duration : 1h 49mn
Overall bit rate : 3 065 Kbps
Movie name : The Wrestler_Рестлер (2009)
Encoded date : UTC 2010-02-22 21:41:31
Writing application : mkvmerge v5.8.0 ('No Sleep / Pillow') built on Sep 30 2012 10:57:14
Writing library : libebml v1.3.0 + libmatroska v1.4.0
Video
ID : 1
Format : AVC
Format/Info : Advanced Video Codec
Format profile : [email protected]
Format settings, CABAC : Yes
Format settings, ReFrames : 10 frames
Muxing mode : Header stripping
Codec ID : V_MPEG4/ISO/AVC
Duration : 1h 49mn
Bit rate : 2 108 Kbps
Width : 1 056 pixels
Height : 440 pixels
Display aspect ratio : 2.40:1
Frame rate mode : Constant
Frame rate : 23.976 fps
Color space : YUV
Chroma subsampling : 4:2:0
Bit depth : 8 bits
Scan type : Progressive
Bits/(Pixel*Frame) : 0.189
Stream size : 1.61 GiB (69%)
Writing library : x264 core 67 r1139M 1024283
Encoding settings : cabac=1 / ref=10 / deblock=1:-3:0 / analyse=0x3:0x133 / me=umh / subme=9 / psy_rd=0.9:0.4 / mixed_ref=1 / me_range=32 / chroma_me=1 / trellis=2 / 8x8dct=1 / cqm=0 / deadzone=21,11 / chroma_qp_offset=-4 / threads=6 / nr=0 / decimate=1 / mbaff=0 / bframes=7 / b_pyramid=1 / b_adapt=2 / b_bias=0 / direct=1 / wpredb=1 / keyint=250 / keyint_min=25 / scenecut=40 / rc=crf / crf=21.3 / qcomp=0.60 / qpmin=10 / qpmax=51 / qpstep=4 / ip_ratio=1.40 / pb_ratio=1.30 / aq=1:0.80
Language : English
Default : Yes
Forced : No
Matrix coefficients : BT.709
Audio #1
ID : 2
Format : AC-3
Format/Info : Audio Coding 3
Mode extension : CM (complete main)
Format settings, Endianness : Big
Muxing mode : Header stripping
Codec ID : A_AC3
Duration : 1h 49mn
Bit rate mode : Constant
Bit rate : 448 Kbps
Channel(s) : 6 channels
Channel positions : Front: L C R, Side: L R, LFE
Sampling rate : 48.0 KHz
Bit depth : 16 bits
Compression mode : Lossy
Stream size : 351 MiB (15%)
Language : Russian
Default : No
Forced : No
Audio #2
ID : 3
Format : AC-3
Format/Info : Audio Coding 3
Mode extension : CM (complete main)
Format settings, Endianness : Big
Muxing mode : Header stripping
Codec ID : A_AC3
Duration : 1h 49mn
Bit rate mode : Constant
Bit rate : 448 Kbps
Channel(s) : 6 channels
Channel positions : Front: L C R, Side: L R, LFE
Sampling rate : 48.0 KHz
Bit depth : 16 bits
Compression mode : Lossy
Stream size : 351 MiB (15%)
Language : English
Default : No
Forced : No
Text #1
ID : 4
Format : UTF-8
Codec ID : S_TEXT/UTF8
Codec ID/Info : UTF-8 Plain Text
Language : Russian
Default : No
Forced : No
Text #2
ID : 5
Format : UTF-8
Codec ID : S_TEXT/UTF8
Codec ID/Info : UTF-8 Plain Text
Language : English
Default : No
Forced : No
-

Скриншоты



-


Последний раз редактировалось: barcamol (2013-05-11 18:21), всего редактировалось 2 раз(а)

Создавать темы 10-Ноя-2012 19:19

[Профиль]  [ЛС] 

baburkhan

Стаж: 5 лет 10 месяцев

Сообщений: 22

barcamol - МОЛОДЦА!
Классный фильм, как и все (почти) фильмы в этом форуме...
Рейтинг: Кинопоиск - 7.682 (32 390), IMDb - 8.00 (172 215)

Создавать темы 10-Ноя-2012 20:09

[Профиль]  [ЛС] 

worldwar

Стаж: 4 года 10 месяцев

Сообщений: 4

Четкий фильм ) Спасибо .

Создавать темы 10-Ноя-2012 20:50

[Профиль]  [ЛС] 

barcamol ®

Стаж: 5 лет 8 месяцев

Сообщений: 29

Симпатии: 15

__


Последний раз редактировалось: barcamol (2013-07-17 13:28), всего редактировалось 1 раз

Создавать темы 12-Ноя-2012 22:55

[Профиль]  [ЛС] 

[email protected]

Стаж: 6 лет 7 месяцев

Сообщений: 22

Дайте скорость плиз!!!!!!!

Создавать темы 26-Дек-2012 22:28

[Профиль]  [ЛС] 

azizr

Стаж: 4 года 8 месяцев

Сообщений: 18

Симпатии: 1

Плиз дайте скорости!(((

Создавать темы 13-Янв-2013 01:41

[Профиль]  [ЛС] 

Proxa

Стаж: 5 лет 7 месяцев

Сообщений: 104

Симпатии: 4

Концовка не по радовала :tm:

Создавать темы 28-Янв-2013 00:05

[Профиль]  [ЛС] 

guitarman

Стаж: 6 лет 5 месяцев

Сообщений: 52

Даайте скорости

Создавать темы 07-Июн-2013 15:17

[Профиль]  [ЛС] 

froz3n

Стаж: 5 лет 7 месяцев

Сообщений: 23

guitarman, Скорость итак нормальная

Создавать темы 08-Июн-2013 10:46

[Профиль]  [ЛС] 

LiX

Стаж: 6 лет 3 месяца

Сообщений: 254

Симпатии: 6

Ребята ну что вы такие все вялые ? Качаю уже 3ий день а из 9ти раздающих всего лишь несколько кб скорости!!! Может поднажмёте?

Создавать темы 30-Окт-2013 20:40

[Профиль]  [ЛС] 

Sakar

Стаж: 3 года 10 месяцев

Сообщений: 26

дайте скорость ПОЖАЛУЙСТА

Создавать темы 11-Ноя-2013 19:37

[Профиль]  [ЛС] 

dinamowf

Стаж: 4 года 8 месяцев

Сообщений: 19

сиды вернитесь!!! пожалуйста

Создавать темы 03-Дек-2013 15:17

[Профиль]  [ЛС] 

sensej7785

Стаж: 5 лет 3 месяца

Сообщений: 11

люди дайте скорости

Создавать темы 08-Фев-2014 19:11

[Профиль]  [ЛС] 

Abdulla_king

Стаж: 5 лет 8 месяцев

Сообщений: 6

Самый скучный фильм когда либо я видел

Создавать темы 14-Май-2014 14:16

[Профиль]  [ЛС] 

M.J.

Стаж: 4 года 1 месяц

Сообщений: 25

Симпатии: 8

```

Создавать темы 17-Май-2015 12:12

[Профиль]  [ЛС] 
Показать сообщения:    
Ответить на тему

Текущее время: 21-Сен 02:40

Часовой пояс: UTC + 5



Вы не можете начинать темы
Вы не можете отвечать на сообщения
Вы не можете редактировать свои сообщения
Вы не можете удалять свои сообщения
Вы не можете голосовать в опросах
Вы не можете прикреплять файлы к сообщениям
Вы не можете скачивать файлы