Клин клином / Fire with Fire (Дэвид Баррет) [2012 г., боевик, триллер, криминал, HDRip]

Ответить на тему
 

Optimus Prime ®

Стаж: 4 года 11 месяцев

Сообщений: 32

Симпатии: 4

-Клин клином / Fire with Fire- Год выпуска: 2012
Страна: США
Жанр: боевик, триллер, криминал
Продолжительность: 01:37:31
Перевод: Любительский (одноголосый)-Режиссер: Дэвид Баррет-В ролях: Джош Дюамель, Розарио Доусон, Брюс Уиллис, Винсент Д’Онофрио, Фифти Сент, Ричард Шифф, Винни Джонс, Джеймс Лежер, Куинтон Джексон, Эри Вервин-Описание: Главный герой — пожарный, попадающий в программу защиты свидетелей. Когда же человек, против которого он должен давать показания, угрожает ему, герой вынужден взять правосудие в свои руки, чтобы спасти любимую женщину.-Качество: HDRip
Формат: AVI
Видео кодек: DivX
Аудио кодек: AC3
Видео: 720х304 (2.35:1), 23.976 fps, 1471 Kbps
Аудио: AC-3, 448 Kbps, 6 channels, 48.0 KHz.-

MediaInfo

General
Complete name : G:\Torrnet\Downloads\Клин клином.2012.L1.HDRip.avi
Format : AVI
Format/Info : Audio Video Interleave
File size : 1.37 GiB
Duration : 1h 37mn
Overall bit rate : 2 007 Kbps
Writing application : VirtualDubMod 1.5.10.2 (build 2540/release)
Writing library : VirtualDubMod build 2540/release
Video
ID : 0
Format : MPEG-4 Visual
Format profile : Advanced [email protected]
Format settings, BVOP : 2
Format settings, QPel : No
Format settings, GMC : No warppoints
Format settings, Matrix : Custom
Codec ID : XVID
Codec ID/Hint : XviD
Duration : 1h 37mn
Bit rate : 1 471 Kbps
Width : 720 pixels
Height : 304 pixels
Display aspect ratio : 2.35:1
Frame rate : 23.976 fps
Color space : YUV
Chroma subsampling : 4:2:0
Bit depth : 8 bits
Scan type : Progressive
Compression mode : Lossy
Bits/(Pixel*Frame) : 0.280
Stream size : 1.00 GiB (73%)
Writing library : XviD 1.2.1 (UTC 2008-12-04)
Audio
ID : 1
Format : AC-3
Format/Info : Audio Coding 3
Mode extension : CM (complete main)
Format settings, Endianness : Big
Codec ID : 2000
Duration : 1h 37mn
Bit rate mode : Constant
Bit rate : 448 Kbps
Channel(s) : 6 channels
Channel positions : Front: L C R, Side: L R, LFE
Sampling rate : 48.0 KHz
Bit depth : 16 bits
Compression mode : Lossy
Stream size : 313 MiB (22%)
Alignment : Split accross interleaves

Скриншоты



Последний раз редактировалось: Optimus Prime (2012-11-11 20:30), всего редактировалось 2 раз(а)

Создавать темы 11-Ноя-2012 16:19

[Профиль]  [ЛС] 

123456789DJ

Стаж: 7 лет 1 месяц

Сообщений: 8

ха постер прикольно получился, уиллис с волосами)

Создавать темы 11-Ноя-2012 20:06

[Профиль]  [ЛС] 

victor0778

Стаж: 6 лет 8 месяцев

Сообщений: 1670

Симпатии: 142

Optimus Prime, скриншоты???

Создавать темы 11-Ноя-2012 20:14

[Профиль]  [ЛС] 

pirat

Стаж: 5 лет 5 месяцев

Сообщений: 216

Симпатии: 63

ха постер прикольно получился, уиллис с волосами)
да, на постере криванулись они....

Создавать темы 11-Ноя-2012 20:17

[Профиль]  [ЛС] 

Optimus Prime ®

Стаж: 4 года 11 месяцев

Сообщений: 32

Симпатии: 4

упс

Создавать темы 11-Ноя-2012 20:25

[Профиль]  [ЛС] 

giga

Стаж: 5 лет 4 месяца

Сообщений: 192

Симпатии: 22

как фильм отпишитесь?

Создавать темы 12-Ноя-2012 20:38

[Профиль]  [ЛС] 

da

Стаж: 6 лет 10 месяцев

Сообщений: 95

Симпатии: 7

сидер на диалапе?

Создавать темы 12-Ноя-2012 22:40

[Профиль]  [ЛС] 

andiman

Стаж: 4 года 11 месяцев

Сообщений: 134

Симпатии: 1

когда перевод нормальный будет, выложите ктонить...

Создавать темы 21-Ноя-2012 00:00

[Профиль]  [ЛС] 

skyrocker

Стаж: 5 лет 7 месяцев

Сообщений: 96

Симпатии: 3

буду ждать лицензию, отвык я от одного голоса за всех)

Создавать темы 26-Ноя-2012 00:53

[Профиль]  [ЛС] 
Показать сообщения:    
Ответить на тему

Текущее время: 18-Окт 05:06

Часовой пояс: UTC + 5



Вы не можете начинать темы
Вы не можете отвечать на сообщения
Вы не можете редактировать свои сообщения
Вы не можете удалять свои сообщения
Вы не можете голосовать в опросах
Вы не можете прикреплять файлы к сообщениям
Вы не можете скачивать файлы