Пила 7 / Saw 7 (Кевин Гротерт) [2010 г., ужасы, триллер, детектив, BDRip 1080p]

Страницы :  1, 2  След.

Ответить на тему
 

Morphing ®

Стаж: 5 лет 5 месяцев

Сообщений: 211

Симпатии: 37

Пила 7 / Saw 7
Год выпуска: 2010
Страна: США
Жанр: ужасы, триллер, детектив
Продолжительность: 01:30:10
Перевод: Профессиональный (полное дублирование)
Режиссер: Кевин Гротерт
В ролях: Костас Мэндилор, Шон Патрик Флэнери, Тобин Белл, Кэри Элвис, Бетси Расселл, Дин Армстронг, Чэд Донелла, Джина Холден, Честер Беннингтон, Ребекка Маршалл
Описание: Жертвы Пилы, выжившие в предыдущих испытаниях, обращаются за психологической помощью к товарищу по несчастью Бобби Дагену. Но когда его собственные темные тайны всплывают на свет, развязывается новая волна террора
Качество: BDRip 1080p
Формат: MKV
Видео кодек: H.264
Аудио кодек: MP3
Видео: 1920x1080, 17.5 Mbps
Аудио: 2 channels, 320 Kbps

Media Info

General
Unique ID : 168348648403719580577546155723716462494 (0x7EA6C532C2870C1E037BA147C20E879E)
Complete name : J:\kino\SAW 7.mkv
Format : Matroska
Format version : Version 2
File size : 11.4 GiB
Duration : 1h 30mn
Overall bit rate : 18.1 Mbps
Writing application : Lavf51.12.1
Writing library : Lavf51.12.1
Video
ID : 1
Format : AVC
Format/Info : Advanced Video Codec
Format profile : [email protected]
Format settings, CABAC : No
Format settings, ReFrames : 1 frame
Format settings, GOP : M=1, N=12
Codec ID : V_MPEG4/ISO/AVC
Duration : 1h 30mn
Bit rate : 17.5 Mbps
Width : 1 920 pixels
Height : 1 080 pixels
Display aspect ratio : 16:9
Frame rate mode : Variable
Frame rate : 23.976 fps
Color space : YUV
Chroma subsampling : 4:2:0
Bit depth : 8 bits
Scan type : Progressive
Bits/(Pixel*Frame) : 0.351
Stream size : 11.0 GiB (96%)
Default : Yes
Forced : No
Audio
ID : 2
Format : MPEG Audio
Format version : Version 1
Format profile : Layer 3
Mode : Joint stereo
Codec ID : A_MPEG/L3
Codec ID/Hint : MP3
Duration : 1h 30mn
Bit rate mode : Constant
Bit rate : 320 Kbps
Channel(s) : 2 channels
Sampling rate : 44.1 KHz
Compression mode : Lossy
Stream size : 206 MiB (2%)
Writing library : LAME3.97
Default : Yes
Forced : No

Скриншоты








Последний раз редактировалось: Morphing (2012-11-12 21:14), всего редактировалось 6 раз(а)

Создавать темы 11-Ноя-2012 22:55

[Профиль]  [ЛС] 

Optimus Prime

Стаж: 5 лет 1 месяц

Сообщений: 32

Симпатии: 4

наверно это Blu-Ray

Создавать темы 11-Ноя-2012 23:02

[Профиль]  [ЛС] 

Optimus Prime

Стаж: 5 лет 1 месяц

Сообщений: 32

Симпатии: 4

наверно это Blu-Ray ne DVDRip

Создавать темы 11-Ноя-2012 23:02

[Профиль]  [ЛС] 

Топик был перенесен из форума Фильмы за 2010 в форум Зарубежное кино

Mixer City

Создавать темы 12-Ноя-2012 00:11

 

Luke

Стаж: 6 лет 10 месяцев

Сообщений: 31

Это не Blu-ray, а BDRip 1080p.

Создавать темы 12-Ноя-2012 12:27

[Профиль]  [ЛС] 

M_A_K

Стаж: 5 лет 11 месяцев

Сообщений: 100

Симпатии: 15

И где скорость ? так мы до нового года не скачаем

Создавать темы 12-Ноя-2012 13:49

[Профиль]  [ЛС] 

zerg

Стаж: 5 лет 8 месяцев

Сообщений: 96

Симпатии: 7

И где скорость ? так мы до нового года не скачаем
если бы до нового, может и через один) за 4 часа около 95 мб. я с внешки быстрей солью.

Создавать темы 19-Ноя-2012 13:00

[Профиль]  [ЛС] 

Morphing ®

Стаж: 5 лет 5 месяцев

Сообщений: 211

Симпатии: 37

ну ща скорости дам :)

Создавать темы 19-Ноя-2012 20:34

[Профиль]  [ЛС] 

Suzanna

Стаж: 5 лет 1 месяц

Сообщений: 30

demonik_0404
А у тебя есть все эти чясти по 2.18 Гб в качестве BDRip

Создавать темы 19-Ноя-2012 21:26

[Профиль]  [ЛС] 

Morphing ®

Стаж: 5 лет 5 месяцев

Сообщений: 211

Симпатии: 37

Suzanna, а вам надо все эти части ?

Создавать темы 20-Ноя-2012 09:24

[Профиль]  [ЛС] 

M_A_K

Стаж: 5 лет 11 месяцев

Сообщений: 100

Симпатии: 15

Чувак ты эту хоть раздай плиз а остальные я скачаю тут лежат 52 гига вроде

Создавать темы 20-Ноя-2012 10:39

[Профиль]  [ЛС] 

djek

Стаж: 6 лет

Сообщений: 90

Симпатии: 4

спасибо автору благодарю !!! дайте макс. скорость ..

Создавать темы 20-Ноя-2012 14:50

[Профиль]  [ЛС] 

M_A_K

Стаж: 5 лет 11 месяцев

Сообщений: 100

Симпатии: 15

Эх сразу не заметил что Аудио: 2 channels, 320 Kbps очень жаль, качать нет смысла(((

Создавать темы 21-Ноя-2012 18:07

[Профиль]  [ЛС] 

Suzanna

Стаж: 5 лет 1 месяц

Сообщений: 30

demonik_0404
Да все и Перевод: Профессиональный (полное дублирование)
и ещё пожалуйста

Создавать темы 25-Ноя-2012 12:02

[Профиль]  [ЛС] 

djek

Стаж: 6 лет

Сообщений: 90

Симпатии: 4

где ты сид пропадал ???

Создавать темы 29-Ноя-2012 20:39

[Профиль]  [ЛС] 
Показать сообщения:    
Ответить на тему

Текущее время: 15-Дек 19:09

Часовой пояс: UTC + 5



Вы не можете начинать темы
Вы не можете отвечать на сообщения
Вы не можете редактировать свои сообщения
Вы не можете удалять свои сообщения
Вы не можете голосовать в опросах
Вы не можете прикреплять файлы к сообщениям
Вы не можете скачивать файлы