Храбрая сердцем / Brave (Марк Эндрюс / Mark Andrews, Бренда Чэпман / Brenda Chapman) [2012, мультфильм, семейный, BDRip 1080p]

Ответить на тему
 

AnRay12383 ®

Стаж: 5 лет 11 месяцев

Сообщений: 9

Симпатии: 5

Храбрая сердцем / Brave
Год выпуска фильма: 2012
Страна: США
Жанр: мультфильм, семейный
Продолжительность: 01:33:37
Перевод: Профессиональный (полное дублированние) - HTB+
Русские субтитры: нет-Режиссер: Марк Эндрюс, Бренда Чэпман
В ролях: Келли Макдональд, Кевин МакКидд, Эмма Томпсон, Крэйг Фергюсон, Робби Колтрейн, Джули Уолтерс, Билли Коннолли и др.-Описание: Испокон веков мифы и легенды окутывают загадочной пеленой живописные отроги Шотландских гор. Главной героиней нового фильма Disney/Pixar «Храбрая сердцем» стала принцесса Мерида, дочь короля Шотландии Фергюса и королевы Элинор.
Искусной лучнице Мериде приходится выбирать свой путь в жизни самостоятельно, и однажды она отказывается следовать древним традициям королевства, бросая вызов могущественным шотландским кланам и их предводителям: нескладному лорду МакГаффину, угрюмому лорду Макинтошу и сварливому лорду Дингволлу. Неосторожные поступки Мериды грозят повергнуть королевство в хаос, и тогда она отправляется за советом к эксцентричной отшельнице, которая вместо помощи накладывает на Мериду опасное заклятье. Юной принцессе предстоит полагаться только на собственную храбрость, чтобы преодолеть могущественное волшебство и победить самого страшного зверя из тех, что водятся в горных долинах.-Качество: BDRip 1080p
Видеокодек: H.264
Аудиокодек: AC3
Видео: 1920x800, ~6294 Кбит/сек
Аудио: 6 канал-ов, 384 Кбит/сек

Media Info

Общее
Уникальный идентификатор : 248816994396766568748374691367687403266 (0xBB3068F6F280A002802A2BEE7899B702)
Полное имя : E:ЗагрузкиBrave.2012.x264.BDRip.1080p.DUB.mkv
Формат : Matroska
Версия формата : Version 2
Размер файла : 4,37 Гбайт
Продолжительность : 1 ч. 33 м.
Общий поток : 6680 Кбит/сек
Дата кодирования : UTC 2012-11-04 12:03:31
Программа кодирования : mkvmerge v5.5.0 ('Healer') built on Apr 6 2012 21:43:24
Библиотека кодирования : libebml v1.2.3 + libmatroska v1.3.0
Видео
Идентификатор : 1
Формат : AVC
Формат/Информация : Advanced Video Codec
Профиль формата : [email protected]
Параметр CABAC формата : Да
Параметр ReFrames формата : 4 кадра
Идентификатор кодека : V_MPEG4/ISO/AVC
Продолжительность : 1 ч. 33 м.
Битрейт : 6294 Кбит/сек
Ширина : 1920 пикселей
Высота : 800 пикселей
Соотношение сторон : 2,40:1
Частота кадров : 23,976 кадра/сек
Цветовое пространство : YUV
Субдискретизация насыщенности : 4:2:0
Битовая глубина : 8 бит
Тип развёртки : Прогрессивная
Бит/(Пиксели*Кадры) : 0.171
Размер потока : 4,03 Гбайт (92%)
Заголовок : Храбрая сердцем
Библиотека кодирования : x264 core 128 r2216 198a7ea
Настройки программы : cabac=1 / ref=4 / deblock=1:0:0 / analyse=0x3:0x133 / me=hex / subme=7 / psy=1 / psy_rd=1.00:0.00 / mixed_ref=1 / me_range=16 / chroma_me=1 / trellis=1 / 8x8dct=1 / cqm=0 / deadzone=21,11 / fast_pskip=1 / chroma_qp_offset=-2 / threads=12 / lookahead_threads=2 / sliced_threads=0 / nr=0 / decimate=1 / interlaced=0 / bluray_compat=0 / constrained_intra=0 / bframes=3 / b_pyramid=2 / b_adapt=1 / b_bias=0 / direct=1 / weightb=1 / open_gop=0 / weightp=2 / keyint=240 / keyint_min=23 / scenecut=40 / intra_refresh=0 / rc_lookahead=40 / rc=2pass / mbtree=1 / bitrate=6294 / ratetol=1.0 / qcomp=0.60 / qpmin=10 / qpmax=51 / qpstep=4 / cplxblur=20.0 / qblur=0.5 / ip_ratio=1.40 / aq=1:1.00
Язык : English
Default : Да
Forced : Нет
Аудио
Идентификатор : 2
Формат : AC-3
Формат/Информация : Audio Coding 3
Расширение режима : CM (complete main)
Идентификатор кодека : A_AC3
Продолжительность : 1 ч. 33 м.
Вид битрейта : Постоянный
Битрейт : 384 Кбит/сек
Каналы : 6 каналов
Расположение каналов : Front: L C R, Side: L R, LFE
Частота : 48,0 КГц
Битовая глубина : 16 бит
Метод сжатия : С потерями
Размер потока : 257 Мбайт (6%)
Заголовок : русский дубляж
Язык : Russian
Default : Да
Forced : Нет

Скриншоты



Последний раз редактировалось: AnRay12383 (2012-12-03 18:17), всего редактировалось 4 раз(а)

Создавать темы 14-Ноя-2012 11:08

[Профиль]  [ЛС] 

grimjow

Стаж: 5 лет 1 месяц

Сообщений: 20

дайте скорости

Создавать темы 22-Ноя-2012 22:29

[Профиль]  [ЛС] 

aziz2725272

Стаж: 5 лет 2 месяца

Сообщений: 158

Симпатии: 6

Плиз скорост :)

Создавать темы 02-Дек-2012 17:32

[Профиль]  [ЛС] 

IStam

Стаж: 5 лет 11 месяцев

Сообщений: 21

скорост плс

Создавать темы 23-Дек-2012 10:54

[Профиль]  [ЛС] 

lloyd

Стаж: 5 лет 9 месяцев

Сообщений: 31

Симпатии: 1

дайте скорости аа пожж

Создавать темы 05-Янв-2013 16:30

[Профиль]  [ЛС] 

lloyd

Стаж: 5 лет 9 месяцев

Сообщений: 31

Симпатии: 1

эээ че так хренова показывает

Создавать темы 06-Янв-2013 17:06

[Профиль]  [ЛС] 

Wulade

Стаж: 4 года 10 месяцев

Сообщений: 16

Симпатии: 1

дайте скорость! плиз!!!

Создавать темы 24-Янв-2013 13:41

[Профиль]  [ЛС] 

lAlcatrazl

Стаж: 5 лет 2 месяца

Сообщений: 11

Дайте скорости пожжж!!!Срочно нужно!

Создавать темы 05-Фев-2013 22:43

[Профиль]  [ЛС] 

Xarek

Стаж: 5 лет 10 месяцев

Сообщений: 18

Симпатии: 1

есть кто на раздаче?

Создавать темы 24-Июн-2013 21:28

[Профиль]  [ЛС] 

David Villa

Стаж: 4 года 7 месяцев

Сообщений: 164

Симпатии: 1

Всем спасибо , нормально скачал , скорость пошла после 5 %

Создавать темы 11-Июл-2013 20:01

[Профиль]  [ЛС] 

David Villa

Стаж: 4 года 7 месяцев

Сообщений: 164

Симпатии: 1

РАЗДАЮ ВСЕМ ЕЖЕДНЕВНО !!!! И НОЧЬЮ ТОЖЕ 24 ЧАСА В СУТКИ

Создавать темы 12-Июл-2013 09:16

[Профиль]  [ЛС] 

Boburxon

Стаж: 4 года 5 месяцев

Сообщений: 1

скорость дайтеее!!!!

Создавать темы 17-Июл-2013 11:03

[Профиль]  [ЛС] 

dandyman

Стаж: 7 лет

Сообщений: 68

Симпатии: 4

А я знаю прототипа героиней мульта.

Создавать темы 20-Окт-2013 00:47

[Профиль]  [ЛС] 

Zodiacos

Стаж: 4 года 2 месяца

Сообщений: 7

Дайте скорости, пожалуйста

Создавать темы 07-Ноя-2013 10:31

[Профиль]  [ЛС] 

Karima

Стаж: 4 года 2 месяца

Сообщений: 15

английскую дорожку залейте пожалуйста ааа

Создавать темы 16-Мар-2014 10:19

[Профиль]  [ЛС] 
Показать сообщения:    
Ответить на тему

Текущее время: 18-Дек 14:00

Часовой пояс: UTC + 5



Вы не можете начинать темы
Вы не можете отвечать на сообщения
Вы не можете редактировать свои сообщения
Вы не можете удалять свои сообщения
Вы не можете голосовать в опросах
Вы не можете прикреплять файлы к сообщениям
Вы не можете скачивать файлы