Тысяча слов / A Thousand Words (Брайан Роббинс / Brian Robbins) [2012, США, комедия, драма, фэнтези, BDRip] MVO + AVO + Original + Subs

Ответить на тему
 

JustSmile ®

Стаж: 7 лет 6 месяцев

Сообщений: 47

Симпатии: 3

Тысяча слов / A Thousand Words
«He only has 1000 words left to discover what matters the most.»
- Страна: США
Студии: DreamWorks SKG, Saturn Films, Varsity Pictures
Жанр: комедия, драма, фэнтези
Год выпуска: 2012
Продолжительность: 01:31:30-Перевод#1: Профессиональный (многоголосый закадровый) НТВ+
Перевод#2: Авторский (одноголосый закадровый) А. Карповский
Cубтитры: русские (FULL) + английские (FULL+FULL SDH) отдельно
Оригинальная аудиодорожка: английский-Режиссер: Брайан Роббинс / Brian Robbins-В ролях: Эдди Мёрфи, Керри Вашингтон, Эмануэл Рэгсдэйл, Джилл Бейси, Грег Коллинз, Роберт Лекванг, Майкл Дж. Уилкинсон, Линдси Нельсон, Майкл Коуди Гилберт, Лу Салиба.-Описание:
Главный герой - трепло, каких свет не видывал. И вот однажды этот говорливый персонаж узнаёт, что ему осталось произнести вслух ровно тысячу слов, после чего он обязательно умрёт…
-Сэмпл: http://file.nnm.uz/?d=50A33EE91-Качество видео: BDRip
Формат видео: AVI
Видео кодек: XviD
Аудио кодек: AC3
Видео: XviD build 65, 720x304 (2.35:1), 23.976 fps, 2238 kbps avg, 0.426 bit/pixel
Аудио#1: 48 kHz, AC3 Dolby Digital, 3/2 (L,C,R,l,r) + LFE ch, 384 kbps avg (MVO НТВ+)
Аудио#2: 48 kHz, AC3 Dolby Digital, 3/2 (L,C,R,l,r) + LFE ch, 384 kbps avg (AVO Карповский)
Аудио#3: 48 kHz, AC3 Dolby Digital, 3/2 (L,C,R,l,r) + LFE ch, 384 kbps avg (Original Eng)
Формат субтитров: softsub (SRT)-

MediaInfo

Общее
Полное имя : D:\A.Thousand.Words.2012.TRIPLE.BDRip.XviD.AC3\A.Thousand.Words.2012.TRIPLE.BDRip.XviD.AC3.avi
Формат : AVI
Формат/Информация : Audio Video Interleave
Профиль формата : OpenDML
Размер файла : 2,18 Гбайт
Продолжительность : 1 ч. 31 м.
Общий поток : 3413 Кбит/сек
Программа кодирования : VirtualDubModRus 1.5.10.2 (build 2542/release)
Библиотека кодирования : VirtualDubMod build 2542/release
Видео
Идентификатор : 0
Формат : MPEG-4 Visual
Профиль формата : Advanced [email protected]
Параметр BVOP формата : 1
Параметр QPel формата : Нет
Параметр GMC формата : Без точки перехода
Параметр матрицы формата : Выборочная
Идентификатор кодека : XVID
Идентификатор кодека/Подсказка : XviD
Продолжительность : 1 ч. 31 м.
Битрейт : 2238 Кбит/сек
Ширина : 720 пикселей
Высота : 304 пикселя
Соотношение сторон : 2,35:1
Частота кадров : 23,976 кадра/сек
Цветовое пространство : YUV
Субдискретизация насыщенности : 4:2:0
Битовая глубина : 8 бит
Тип развёртки : Прогрессивная
Метод сжатия : С потерями
Бит/(Пиксели*Кадры) : 0.426
Размер потока : 1,43 Гбайт (66%)
Библиотека кодирования : XviD 65
Аудио #1
Идентификатор : 1
Формат : AC-3
Формат/Информация : Audio Coding 3
Расширение режима : CM (complete main)
Идентификатор кодека : 2000
Продолжительность : 1 ч. 31 м.
Вид битрейта : Постоянный
Битрейт : 384 Кбит/сек
Каналы : 6 каналов
Расположение каналов : Front: L C R, Side: L R, LFE
Частота : 48,0 КГц
Битовая глубина : 16 бит
Метод сжатия : С потерями
Размер потока : 251 Мбайт (11%)
Выравнивание : Разделение по промежуткам
Продолжительность промежутка : 42 мс. (1,00 видеокадр)
Время предзагрузки промежутка : 500 мс.
Заголовок : MVO HTB+
Аудио #2
Идентификатор : 2
Формат : AC-3
Формат/Информация : Audio Coding 3
Расширение режима : CM (complete main)
Идентификатор кодека : 2000
Продолжительность : 1 ч. 31 м.
Вид битрейта : Постоянный
Битрейт : 384 Кбит/сек
Каналы : 6 каналов
Расположение каналов : Front: L C R, Side: L R, LFE
Частота : 48,0 КГц
Битовая глубина : 16 бит
Метод сжатия : С потерями
Размер потока : 251 Мбайт (11%)
Выравнивание : Разделение по промежуткам
Продолжительность промежутка : 42 мс. (1,00 видеокадр)
Время предзагрузки промежутка : 500 мс.
Заголовок : AVO Карповский
Аудио #3
Идентификатор : 3
Формат : AC-3
Формат/Информация : Audio Coding 3
Расширение режима : CM (complete main)
Идентификатор кодека : 2000
Продолжительность : 1 ч. 31 м.
Вид битрейта : Постоянный
Битрейт : 384 Кбит/сек
Каналы : 6 каналов
Расположение каналов : Front: L C R, Side: L R, LFE
Частота : 48,0 КГц
Битовая глубина : 16 бит
Метод сжатия : С потерями
Размер потока : 251 Мбайт (11%)
Выравнивание : Разделение по промежуткам
Продолжительность промежутка : 42 мс. (1,00 видеокадр)
Время предзагрузки промежутка : 500 мс.
Заголовок : Original

Скриншоты





Последний раз редактировалось: JustSmile (2012-11-14 12:32), всего редактировалось 1 раз

Создавать темы 14-Ноя-2012 12:00

[Профиль]  [ЛС] 

tuychi

Стаж: 5 лет 9 месяцев

Сообщений: 9

Симпатии: 2

друзя так не часно дайте скорист от мне 200-600 кб/с качаета а я ели 10-20 кб/с скачаю пожалуста так не делети.

Создавать темы 15-Ноя-2012 19:13

[Профиль]  [ЛС] 

hitan89

Стаж: 5 лет 8 месяцев

Сообщений: 6

капец парень написал)) Ахахахах))) Поднял настроение))) Лучше бы на узбекском написал))

Создавать темы 15-Ноя-2012 21:38

[Профиль]  [ЛС] 

janrok

Стаж: 5 лет 8 месяцев

Сообщений: 290

Симпатии: 27

капец парень написал)) Ахахахах))) Поднял настроение))) Лучше бы на узбекском написал))
на узбекском и написал бы если не правила, так что не хе,,,,р ржать, не нравиться не читай!!!

Создавать темы 15-Ноя-2012 22:03

[Профиль]  [ЛС] 

Clever

Стаж: 5 лет 2 месяца

Сообщений: 31

кто смотрел опишитесь как фильм

Создавать темы 15-Ноя-2012 22:38

[Профиль]  [ЛС] 

problematico

Стаж: 6 лет 4 месяца

Сообщений: 11

Симпатии: 3

нипокачать на 20кб/с, даёшь скорости

Создавать темы 15-Ноя-2012 22:38

[Профиль]  [ЛС] 

arslan-mukatov

Стаж: 5 лет 9 месяцев

Сообщений: 74

Фильмы с Эдди Мёрфи всегда были ржачными, буду качать!!!!!!!! Автору +++++

Создавать темы 19-Ноя-2012 22:08

[Профиль]  [ЛС] 

sher3od

Стаж: 5 лет

Сообщений: 41

Симпатии: 3

Спс за релиз

Создавать темы 20-Ноя-2012 14:50

[Профиль]  [ЛС] 

poimalmuhu

Стаж: 6 лет 4 месяца

Сообщений: 8

Симпатии: 1

Отличный фильм!

Создавать темы 20-Ноя-2012 15:01

[Профиль]  [ЛС] 

FaBR1

Стаж: 6 лет 9 месяцев

Сообщений: 30

Нормальный фильм, посмотреть разок стоит.

Создавать темы 20-Ноя-2012 15:10

[Профиль]  [ЛС] 

MrСтас

Стаж: 5 лет 10 месяцев

Сообщений: 45

отличный фильм хорошо поработал +10

Создавать темы 20-Ноя-2012 19:02

[Профиль]  [ЛС] 

MarcOs

Стаж: 5 лет 10 месяцев

Сообщений: 10

Дайте скорости, плз(((

Создавать темы 26-Ноя-2012 09:34

[Профиль]  [ЛС] 

Whitejin

Стаж: 6 лет 7 месяцев

Сообщений: 175

Симпатии: 11

Очень понравился!

Создавать темы 26-Ноя-2012 11:07

[Профиль]  [ЛС] 

gusar

Стаж: 6 лет 10 месяцев

Сообщений: 35

скорости пожалуйста!

Создавать темы 27-Ноя-2012 01:03

[Профиль]  [ЛС] 
Показать сообщения:    
Ответить на тему

Текущее время: 23-Ноя 21:24

Часовой пояс: UTC + 5



Вы не можете начинать темы
Вы не можете отвечать на сообщения
Вы не можете редактировать свои сообщения
Вы не можете удалять свои сообщения
Вы не можете голосовать в опросах
Вы не можете прикреплять файлы к сообщениям
Вы не можете скачивать файлы