Клин клином / Fire with Fire (Дэвид Баррет / David Barrett) [2012 г., боевик, триллер, криминал, HDRip-AVC] VO (den904)

Ответить на тему
 

Robot-IX ®

Стаж: 5 лет 7 месяцев

Сообщений: 223

Симпатии: 9

Клин клином / Fire withFire«Revenge has its own set of rules.»

Страна: США
Жанр: боевик, триллер, криминал
Год выпуска: 2012
Продолжительность: 01:37:31-Перевод: Одноголосый закадровый [den904]-Режиссер: Дэвид Баррет / David Barrett-В ролях: Джош Дюамель, Брюс Уиллис, Розарио Доусон, Винсент Д’Онофрио, Фифти Сент, Винни Джонс, Эри Вервин, Бонни Соммервиль, Ричард Шифф, Йоханс Майлс...-Описание: Главный герой — пожарный, попадающий в программу защиты свидетелей. Когда же человек, против которого он должен давать показания, угрожает ему, герой вынужден взять правосудие в свои руки, чтобы спасти любимую женщину.-Рейтинг:
 
-Качество видео: HDRip-AVC
Формат видео: MKV-Видео кодек: AVC/H.264
Аудио кодек: AC3
Видео: 1699 Кбит/сек, 976*408 (2,35:1), в 23,976 кадр/сек
Аудио Rus: 448 Кбит/сек, 48,0 КГц, 16 бит, 6 канала(ов) - одноголосый закадровый (любительский)

Media Info

Общее
Уникальный идентификатор : 178274314481141350916895146548691643082 (0x861E625196859840AAD12EDC7E3EAACA)
Полное имя : D:\Torent\Klin_klinom_2012.HDRip.mkv
Формат : Matroska
Версия формата : Version 2
Размер файла : 1,46 Гбайт
Продолжительность : 1 ч. 37 м.
Общий поток : 2148 Кбит/сек
Название фильма : Fire with Fire (Rip by S.T.A.L.K.E.R.2)
Дата кодирования : UTC 2012-11-03 21:23:29
Программа кодирования : mkvmerge v5.6.0 ('Kenya Kane') built on May 27 2012 16:44:04
Библиотека кодирования : libebml v1.2.3 + libmatroska v1.3.0
Видео
Идентификатор : 1
Формат : AVC
Формат/Информация : Advanced Video Codec
Профиль формата : [email protected]
Параметр CABAC формата : Да
Параметр ReFrames формата : 10 кадров
Идентификатор кодека : V_MPEG4/ISO/AVC
Продолжительность : 1 ч. 37 м.
Битрейт : 1699 Кбит/сек
Ширина : 976 пикселей
Высота : 408 пикселей
Соотношение сторон : 2,40:1
Частота кадров : 23,976 кадра/сек
Цветовое пространство : YUV
Субдискретизация насыщенности : 4:2:0
Битовая глубина : 8 бит
Тип развёртки : Прогрессивная
Бит/(Пиксели*Кадры) : 0.178
Размер потока : 1,13 Гбайт (77%)
Библиотека кодирования : x264 core 125 r2200 999b753
Настройки программы : cabac=1 / ref=10 / deblock=1:-2:-1 / analyse=0x3:0x113 / me=umh / subme=10 / psy=1 / psy_rd=1.00:0.05 / mixed_ref=1 / me_range=32 / chroma_me=1 / trellis=2 / 8x8dct=1 / cqm=0 / deadzone=21,11 / fast_pskip=0 / chroma_qp_offset=-5 / threads=8 / lookahead_threads=1 / sliced_threads=0 / nr=0 / decimate=0 / interlaced=0 / bluray_compat=0 / constrained_intra=0 / bframes=12 / b_pyramid=2 / b_adapt=2 / b_bias=0 / direct=1 / weightb=1 / open_gop=0 / weightp=2 / keyint=230 / keyint_min=22 / scenecut=40 / intra_refresh=0 / rc_lookahead=40 / rc=2pass / mbtree=1 / bitrate=1699 / ratetol=1.0 / qcomp=0.60 / qpmin=10 / qpmax=51 / qpstep=4 / cplxblur=20.0 / qblur=0.5 / vbv_maxrate=50000 / vbv_bufsize=50000 / nal_hrd=none / ip_ratio=1.40 / aq=1:1.00
Язык : English
Default : Да
Forced : Нет
Аудио
Идентификатор : 2
Формат : AC-3
Формат/Информация : Audio Coding 3
Расширение режима : CM (complete main)
Параметр Endianness формата : Big
Идентификатор кодека : A_AC3
Продолжительность : 1 ч. 37 м.
Вид битрейта : Постоянный
Битрейт : 448 Кбит/сек
Каналы : 6 каналов
Расположение каналов : Front: L C R, Side: L R, LFE
Частота : 48,0 КГц
Битовая глубина : 16 бит
Метод сжатия : С потерями
Размер потока : 313 Мбайт (21%)
Заголовок : VO - den904
Язык : Russian
Default : Да
Forced : Нет

Скриншоты






Последний раз редактировалось: Robot-IX (2013-09-29 23:12), всего редактировалось 1 раз

Создавать темы 15-Ноя-2012 17:39

[Профиль]  [ЛС] 

Топик был перенесен из форума Фильмы за 2012 (новинки) в форум HD-AVC

victor0778

Создавать темы 15-Ноя-2012 20:54

 

Kit

Стаж: 5 лет 3 месяца

Сообщений: 153

Симпатии: 9

пожалуйста, дайте скорости!

Создавать темы 17-Фев-2013 17:31

[Профиль]  [ЛС] 
Показать сообщения:    
Ответить на тему

Текущее время: 22-Ноя 20:00

Часовой пояс: UTC + 5



Вы не можете начинать темы
Вы не можете отвечать на сообщения
Вы не можете редактировать свои сообщения
Вы не можете удалять свои сообщения
Вы не можете голосовать в опросах
Вы не можете прикреплять файлы к сообщениям
Вы не можете скачивать файлы