Воображариум доктора Парнаса / The Imaginarium of Doctor Parnassus (Терри Гиллиам) [2009 г., фэнтези, приключения, BDRip 720р]

Ответить на тему
 

zerg ®

Стаж: 5 лет 6 месяцев

Сообщений: 96

Симпатии: 7


Воображариум доктора Парнаса / The Imaginarium of Doctor Parnassus

««Какова цена его бессмертия?»»
--
Название: Воображариум доктора Парнаса
Оригинальное название: The Imaginarium of Doctor Parnassus
Год выхода: 2009
Жанр: фэнтези, приключения
Страна: Великобритания - Канада - Франция
Режиссер: Терри Гиллиам
В ролях: Джонни Депп, Хит Леджер, Джуд Лоу, Лили Коул, Колин Фаррелл, Кристофер Пламмер, Том Уэйтс, Эндрю Гарфилд, Петер Стормаре, Верн Тройер
Описание: Путешествуя по миру вместе со своей труппой, доктор Парнас дает возможность зрителям шоу пройти сквозь волшебное зеркало в фантастический мир. Однако магический дар Парнаса имеет свою цену: в течение многих веков он играет в азартные игры с самим дьяволом, который собирается прийти и забрать свой приз — дочь Парнаса Валентину. Но девушка влюбляется в загадочного незнакомца по имени Тони, который присоединяется к труппе в Лондоне…
Продолжительность: 02:02:31
Перевод: Профессиональный (полное дублирование) ! ЛИЦЕНЗИЯ !
Перевод: Профессиональный (одноголосый/Сербин)-- Формат: MKV
Качество: BDRip [720p]
Видео-кодек: H.264
Аудио-кодек: DTS
Видео: 1 280 x 694 | 7 000 kbps | 23.976 fps
Аудио №1: Русский (Дублированный), DTS | 768 kbps | 5.1 ch | 48.0 KHz | |
Аудио №2: Английский (Оригинал), DTS | 1 536 kbps | 5.1 ch | 48.0 KHz | |
Аудио №3: Русский (Профессиональный (один голос), DTS | 1 536 kbps | 5.1 ch | 48.0 KHz | |
Аудио №4-5: Комментарии - профессиональный двухголовый, OGG, 2ch, 80 кбит/с | |
Субтитры: softsub (SRT) | |-- --

Media-Info

Complete name : D:\torrents\The.Imaginarium.of.Doctor.Parnassus.2009.x264.720p.BluRay.Rus.Eng.HDv0day.mkv
Format : Matroska
Format version : Version 2
File size : 9.36 GiB
Duration : 2h 2mn
Overall bit rate mode : Variable
Overall bit rate : 10.9 Mbps
Movie name : For all
Encoded date : UTC 2010-11-11 12:53:41
Writing application : mkvmerge v3.4.0 ('Rapunzel') built on May 15 2010 09:38:20
Writing library : libebml v0.8.0 + libmatroska v0.9.0
Video
ID : 1
Format : AVC
Format/Info : Advanced Video Codec
Format profile : [email protected]
Format settings, CABAC : Yes
Format settings, ReFrames : 8 frames
Codec ID : V_MPEG4/ISO/AVC
Duration : 2h 2mn
Bit rate : 7 000 Kbps
Width : 1 280 pixels
Height : 694 pixels
Display aspect ratio : 1.85:1
Frame rate : 23.976 fps
Color space : YUV
Chroma subsampling : 4:2:0
Bit depth : 8 bits
Scan type : Progressive
Bits/(Pixel*Frame) : 0.329
Stream size : 5.81 GiB (62%)
Title : The Imaginarium of Doctor Parnassus (2009)
Writing library : x264 core 84 r1400M 20fa784
Encoding settings : cabac=1 / ref=8 / deblock=1:-3:-3 / analyse=0x3:0x133 / me=esa / subme=10 / psy=1 / psy_rd=0.9:0.0 / mixed_ref=1 / me_range=32 / chroma_me=1 / trellis=2 / 8x8dct=1 / cqm=0 / deadzone=21,11 / fast_pskip=0 / chroma_qp_offset=-2 / threads=12 / sliced_threads=0 / nr=0 / decimate=0 / mbaff=0 / constrained_intra=0 / bframes=6 / b_pyramid=2 / b_adapt=2 / b_bias=0 / direct=3 / wpredb=1 / wpredp=2 / keyint=250 / keyint_min=25 / scenecut=40 / intra_refresh=0 / rc_lookahead=40 / rc=2pass / mbtree=1 / bitrate=7000 / ratetol=1.0 / qcomp=0.60 / qpmin=10 / qpmax=51 / qpstep=4 / cplxblur=20.0 / qblur=0.5 / ip_ratio=1.40 / aq=1:1.00 / pulldown=0 / nal_hrd=0
Language : English
Default : Yes
Forced : No
Audio #1
ID : 2
Format : DTS
Format/Info : Digital Theater Systems
Codec ID : A_DTS
Duration : 2h 2mn
Bit rate mode : Constant
Bit rate : 755 Kbps
Channel(s) : 6 channels
Channel positions : Front: L C R, Side: L R, LFE
Sampling rate : 48.0 KHz
Bit depth : 24 bits
Compression mode : Lossy
Stream size : 661 MiB (7%)
Title : Дубляж (Пифагор) R5 DTS/768 @ 5.1
Language : Russian
Default : Yes
Forced : No
Audio #2
ID : 3
Format : DTS
Format/Info : Digital Theater Systems
Codec ID : A_DTS
Duration : 2h 2mn
Bit rate mode : Constant
Bit rate : 1 510 Kbps
Channel(s) : 6 channels
Channel positions : Front: L C R, Side: L R, LFE
Sampling rate : 48.0 KHz
Bit depth : 24 bits
Compression mode : Lossy
Stream size : 1.29 GiB (14%)
Title : DTS 5.1 @ 1536 kbps - Одноголосый закадровый, Ю.Сербин
Language : Russian
Default : No
Forced : No
Audio #3
ID : 4
Format : DTS
Format/Info : Digital Theater Systems
Codec ID : A_DTS
Duration : 2h 2mn
Bit rate mode : Constant
Bit rate : 1 510 Kbps
Channel(s) : 6 channels
Channel positions : Front: L C R, Side: L R, LFE
Sampling rate : 48.0 KHz
Bit depth : 24 bits
Compression mode : Lossy
Stream size : 1.29 GiB (14%)
Title : DTS-HDMA core 5.1 @ 1536 kbps
Language : English
Default : No
Forced : No
Audio #4
ID : 5
Format : Vorbis
Format settings, Floor : 1
Codec ID : A_VORBIS
Duration : 2h 2mn
Bit rate mode : Variable
Bit rate : 80.0 Kbps
Channel(s) : 2 channels
Sampling rate : 44.1 KHz
Compression mode : Lossy
Stream size : 70.1 MiB (1%)
Title : Комментарии №1
Writing library : libVorbis 20090709 (UTC 2009-07-09)
Language : English
Default : No
Forced : No
Writing application : VLC media player
Audio #5
ID : 6
Format : Vorbis
Format settings, Floor : 1
Codec ID : A_VORBIS
Duration : 2h 2mn
Bit rate mode : Variable
Bit rate : 80.0 Kbps
Channel(s) : 2 channels
Sampling rate : 44.1 KHz
Compression mode : Lossy
Stream size : 70.1 MiB (1%)
Title : Комментарии №2
Writing library : libVorbis 20090709 (UTC 2009-07-09)
Language : English
Default : No
Forced : No
Writing application : VLC media player
Text #1
ID : 7
Format : UTF-8
Codec ID : S_TEXT/UTF8
Codec ID/Info : UTF-8 Plain Text
Title : R5
Language : Russian
Default : No
Forced : No
Text #2
ID : 8
Format : UTF-8
Codec ID : S_TEXT/UTF8
Codec ID/Info : UTF-8 Plain Text
Title : R5
Language : Ukrainian
Default : No
Forced : No
Text #3
ID : 9
Format : UTF-8
Codec ID : S_TEXT/UTF8
Codec ID/Info : UTF-8 Plain Text
Language : English
Default : No
Forced : No


Последний раз редактировалось: zerg (2012-11-16 01:43), всего редактировалось 4 раз(а)

Создавать темы 16-Ноя-2012 00:15

[Профиль]  [ЛС] 

SNIL

Стаж: 5 лет 8 месяцев

Сообщений: 2624

Симпатии: 341

Эх скачал бы! Но размерчик перебор))

Создавать темы 16-Ноя-2012 00:49

[Профиль]  [ЛС] 

Honda

Стаж: 6 лет 10 месяцев

Сообщений: 93

Симпатии: 1

BDRip [720p], а 1080 есть?

Создавать темы 16-Ноя-2012 01:05

[Профиль]  [ЛС] 

zerg ®

Стаж: 5 лет 6 месяцев

Сообщений: 96

Симпатии: 7

Honda, есть на рутрекере. с таким битрейтом и 720 замечательно выглядит. смотрел на сороковке FullHD.

Создавать темы 16-Ноя-2012 01:18

[Профиль]  [ЛС] 

uTorrent

Стаж: 4 года 11 месяцев

Сообщений: 149

Симпатии: 1

Эта загрузка должна быть золотой так как Оскар получил фильм

Создавать темы 19-Ноя-2012 21:16

[Профиль]  [ЛС] 

SNIL

Стаж: 5 лет 8 месяцев

Сообщений: 2624

Симпатии: 341

Посмотел по ТВ3 (так себе фильмец)

Создавать темы 19-Ноя-2012 21:24

[Профиль]  [ЛС] 

DMiTRY

Стаж: 6 лет 4 месяца

Сообщений: 649

Симпатии: 28

Эта загрузка должна быть золотой так как Оскар получил фильм
как мне нравится это сообщение)

Создавать темы 19-Ноя-2012 21:47

[Профиль]  [ЛС] 
Показать сообщения:    
Ответить на тему

Текущее время: 20-Сен 19:46

Часовой пояс: UTC + 5



Вы не можете начинать темы
Вы не можете отвечать на сообщения
Вы не можете редактировать свои сообщения
Вы не можете удалять свои сообщения
Вы не можете голосовать в опросах
Вы не можете прикреплять файлы к сообщениям
Вы не можете скачивать файлы