Темный рыцарь: Возрождение легенды (HD 720p) / The Dark Knight Rises [2012 г., Боевик, Драма, Криминал, Триллер, Фантастика] [BDRip] [Лицензия]

Страницы :  1, 2  След.

Ответить на тему
 

Rock321123 ®

Стаж: 7 лет

Сообщений: 94

Симпатии: 5

Темный рыцарь: Возрождение легенды / The Dark Knight Rises
Год выпуска: 2012
Страна: США, Великобритания
Жанр: Боевик, Приключения, Триллер, Фантастика
Продолжительность: 02:44:32
Перевод: Профессиональный (полное дублирование)
Режиссер: Кристофер Нолан
В ролях: Бен Мендельсон, Гари Олдман, Джозеф Гордон-Левитт, Кристиан Бэйл, Майкл Кейн, Марион Котийяр, Морган Фриман, Мэтью Модайн, Том Харди, Энн Хэтэуэй
Описание: Восемь лет назад Бэтмен растворился в ночи, превратившись из героя в беглеца. Приняв на себя вину за смерть прокурора Харви Дента, Темный рыцарь пожертвовал всем. Вместе с комиссаром Гордоном они решили, что так будет лучше для всех. Пока преступность была раздавлена антикриминальным актом Дента, ложь действовала.
Но с появлением хитрой воровки с загадочным прошлым всё меняется. Тем не менее, еще опаснее становится появление террориста Бэйна, чье лицо закрыто маской. Он разворачивает в Готэме чудовищную деятельность, вынуждая Брюса Уэйна выйти из импровизированного изгнания. Однако даже надев свой костюм, Бэтмен может проиграть Бэйну.
Качество: BDRip
Формат: MKV
Видео кодек: AVC
Аудио кодек: AC3
Видео: 1280 x 720 (1.78:1)(16:9); 4 073 Kbps; 23.976 fps
Аудио№1: AC-3, 384 Kbps, 6 channels, 48.0 KHz, rus, AC3 5.1 @ 384 kbps DUB, Blu-ray CEE
Аудио№2: DTS, 1510 Kbps, 6 channels, 48.0 KHz, eng, DTS 5.1 @ 1536 kbps
Субтитры: Rus, Eng

Скриншоты




MediaInfo

MediaInfoGeneral
Unique ID : 225958498421314433050563328549396766773 (0xA9FE0619B65935A6ADDE80E67EC96035)
Complete name : C:\Фильмы\Temniy.Rycar.2012.Dual.BDRip.720p.mkv
Format : Matroska
Format version : Version 2
File size : 7.00 GiB
Duration : 2h 44mn
Overall bit rate : 6 088 Kbps
Movie name : The Dark Knight Rises (2012) - Release from CoolDX
Encoded date : UTC 2012-11-18 19:18:50
Writing application : mkvmerge v4.2.0 ('No Talking') сборка от Jul 28 2010 18:38:23
Writing library : libebml v1.0.0 + libmatroska v1.0.0
Video
ID : 1
Format : AVC
Format/Info : Advanced Video Codec
Format profile : [email protected]
Format settings, CABAC : Yes
Format settings, ReFrames : 5 frames
Muxing mode : Header stripping
Codec ID : V_MPEG4/ISO/AVC
Duration : 2h 44mn
Bit rate : 4 196 Kbps
Width : 1 280 pixels
Height : 720 pixels
Display aspect ratio : 16:9
Frame rate mode : Constant
Frame rate : 23.976 fps
Color space : YUV
Chroma subsampling : 4:2:0
Bit depth : 8 bits
Scan type : Progressive
Bits/(Pixel*Frame) : 0.190
Stream size : 4.68 GiB (67%)
Writing library : x264 core 128 r2216 198a7ea
Encoding settings : cabac=1 / ref=5 / deblock=1:0:0 / analyse=0x3:0x133 / me=umh / subme=7 / psy=1 / psy_rd=1.00:0.00 / mixed_ref=1 / me_range=16 / chroma_me=1 / trellis=1 / 8x8dct=1 / cqm=0 / deadzone=21,11 / fast_pskip=0 / chroma_qp_offset=-2 / threads=12 / lookahead_threads=2 / sliced_threads=0 / nr=0 / decimate=1 / interlaced=0 / bluray_compat=0 / constrained_intra=0 / bframes=3 / b_pyramid=2 / b_adapt=1 / b_bias=0 / direct=1 / weightb=1 / open_gop=0 / weightp=2 / keyint=250 / keyint_min=23 / scenecut=40 / intra_refresh=0 / rc_lookahead=40 / rc=2pass / mbtree=1 / bitrate=4196 / ratetol=1.0 / qcomp=0.60 / qpmin=0 / qpmax=69 / qpstep=4 / cplxblur=20.0 / qblur=0.5 / ip_ratio=1.40 / aq=1:1.00
Language : English
Default : Yes
Forced : No
Audio #1
ID : 2
Format : AC-3
Format/Info : Audio Coding 3
Mode extension : CM (complete main)
Format settings, Endianness : Big
Muxing mode : Header stripping
Codec ID : A_AC3
Duration : 2h 44mn
Bit rate mode : Constant
Bit rate : 384 Kbps
Channel(s) : 6 channels
Channel positions : Front: L C R, Side: L R, LFE
Sampling rate : 48.0 KHz
Bit depth : 16 bits
Compression mode : Lossy
Stream size : 452 MiB (6%)
Title : AC3 5.1 @ 384 kbps DUB, Blu-ray CEE
Language : Russian
Default : Yes
Forced : No
Audio #2
ID : 3
Format : DTS
Format/Info : Digital Theater Systems
Mode : 16
Format settings, Endianness : Big
Muxing mode : Header stripping
Codec ID : A_DTS
Duration : 2h 44mn
Bit rate mode : Constant
Bit rate : 1 509 Kbps
Channel(s) : 6 channels
Channel positions : Front: L C R, Side: L R, LFE
Sampling rate : 48.0 KHz
Bit depth : 24 bits
Compression mode : Lossy
Delay relative to video : 11ms
Stream size : 1.73 GiB (25%)
Title : DTS 5.1 @ 1536 kbps
Language : English
Default : No
Forced : No
Text #1
ID : 4
Format : UTF-8
Codec ID : S_TEXT/UTF8
Codec ID/Info : UTF-8 Plain Text
Language : Russian
Default : No
Forced : No
Text #2
ID : 5
Format : UTF-8
Codec ID : S_TEXT/UTF8
Codec ID/Info : UTF-8 Plain Text
Language : English
Default : No
Forced : No
Menu
00:00:00.000 : en:00:00:00.000
00:09:02.834 : en:00:09:02.834
00:19:08.522 : en:00:19:08.522
00:30:15.856 : en:00:30:15.856
00:41:08.800 : en:00:41:08.800
00:51:09.525 : en:00:51:09.525
01:00:29.668 : en:01:00:29.668
01:10:04.033 : en:01:10:04.033
01:20:13.475 : en:01:20:13.475
01:31:00.580 : en:01:31:00.580
01:39:24.292 : en:01:39:24.292
01:48:58.490 : en:01:48:58.490
02:00:21.589 : en:02:00:21.589
02:10:47.673 : en:02:10:47.673
02:19:12.636 : en:02:19:12.636
02:30:14.631 : en:02:30:14.631
02:36:50.526 : en:02:36:50.526


Последний раз редактировалось: Rock321123 (2012-11-20 03:27), всего редактировалось 7 раз(а)

Создавать темы 19-Ноя-2012 17:55

[Профиль]  [ЛС] 

TARANTINO

Стаж: 5 лет

Сообщений: 42

Симпатии: 1

Rock321123, Спасибо

Создавать темы 19-Ноя-2012 18:11

[Профиль]  [ЛС] 

ocean_studio

Стаж: 6 лет 5 месяцев

Сообщений: 4

Симпатии: 2

дайте скорости!!!!!!

Создавать темы 19-Ноя-2012 18:47

[Профиль]  [ЛС] 

victor0778

Стаж: 6 лет 8 месяцев

Сообщений: 1670

Симпатии: 142

Rock321123, медиаинфо выложите

Создавать темы 19-Ноя-2012 20:31

[Профиль]  [ЛС] 

Misato

Стаж: 5 лет 6 месяцев

Сообщений: 37

Симпатии: 1

Дайте газу...че за скорость

Создавать темы 20-Ноя-2012 18:47

[Профиль]  [ЛС] 

DMiTRY

Стаж: 6 лет 5 месяцев

Сообщений: 649

Симпатии: 28

помогу с раздачей.

Создавать темы 20-Ноя-2012 19:58

[Профиль]  [ЛС] 

Rock321123 ®

Стаж: 7 лет

Сообщений: 94

Симпатии: 5

ДАВНО ПОРА DMiTRY,

Создавать темы 20-Ноя-2012 20:42

[Профиль]  [ЛС] 

Sinema_uz

Стаж: 6 лет 9 месяцев

Сообщений: 303

Симпатии: 4

а маленкий нету 1гиг и 37 мегабаетный????????

Создавать темы 20-Ноя-2012 20:43

[Профиль]  [ЛС] 

edgemza

Стаж: 6 лет 5 месяцев

Сообщений: 191

Симпатии: 7

Sinema_uz, ну, вообще-то фильм на ТРИ часа! Так что 1,37 Гб будет маловато! Здесь есть на 2,74 Гб, попробуйте его скачать, все же меньше, чем 7 гигов!
Но, там есть одна особенность! Формат IMAX, поэтому картинка (рамка) то широкая то обрезанная :(


Последний раз редактировалось: edgemza (2012-11-20 23:03), всего редактировалось 1 раз

Создавать темы 20-Ноя-2012 22:57

[Профиль]  [ЛС] 

Rock321123 ®

Стаж: 7 лет

Сообщений: 94

Симпатии: 5

Sinema_uz, Ну это качественное будете смотреть на плазме если есть

Создавать темы 20-Ноя-2012 22:59

[Профиль]  [ЛС] 

Misato

Стаж: 5 лет 6 месяцев

Сообщений: 37

Симпатии: 1

DMiTRY, было бы неплохо а то с такой скоростью неделями буду качать))

Создавать темы 21-Ноя-2012 21:49

[Профиль]  [ЛС] 

DMiTRY

Стаж: 6 лет 5 месяцев

Сообщений: 649

Симпатии: 28

DMiTRY, было бы неплохо а то с такой скоростью неделями буду качать))
Завтра утром встану на раздачу снова.. скорость будет нормальная,не меньше чем была сегодня.

Создавать темы 21-Ноя-2012 21:53

[Профиль]  [ЛС] 

un1or

Стаж: 7 лет 1 месяц

Сообщений: 45

Симпатии: 18

сори за критику, но мне кажется РИП не очень! я про качество...
или мож скрины плохого качества!

Создавать темы 22-Ноя-2012 23:02

[Профиль]  [ЛС] 

Rock321123 ®

Стаж: 7 лет

Сообщений: 94

Симпатии: 5

un1or, скачайте и посмотрите это вам не камп рип)

Создавать темы 23-Ноя-2012 00:45

[Профиль]  [ЛС] 

ivan_viz

Стаж: 6 лет 8 месяцев

Сообщений: 12

скорости бы(

Создавать темы 23-Ноя-2012 02:07

[Профиль]  [ЛС] 
Показать сообщения:    
Ответить на тему

Текущее время: 23-Окт 22:16

Часовой пояс: UTC + 5



Вы не можете начинать темы
Вы не можете отвечать на сообщения
Вы не можете редактировать свои сообщения
Вы не можете удалять свои сообщения
Вы не можете голосовать в опросах
Вы не можете прикреплять файлы к сообщениям
Вы не можете скачивать файлы