Промах / Gli sfiorati (Маттео Ровере) [2011, драма, романтика, DVDRip]

Страницы :  1, 2  След.

Ответить на тему
 

jaska-3d ®

Стаж: 5 лет 11 месяцев

Сообщений: 250

Симпатии: 25

Промах / Gli sfiorati--
Год выпуска: 2011
Страна: Италия
Жанр: драма, романтика
Продолжительность: 01:46:55
Перевод: Любительский (одноголосый закадровый)[А. Кедров]-Режиссер: Маттео Ровере
Сценарий: Маттео Ровере, Лаура Паолуччи, Франческо Пикколо, ...
Продюсер: Доменико Прокаччи, Иван Фьорини
Оператор: Владан Радович
Композитор: Andrea Farri
Художник: Алессандро Ваннуччи-В главных ролях:Андреа Боска, Мириам Джованелли, Клаудио Сантамария, Микеле Риондино, Массимо Пополицио, Айтана Санчес-Хихон, Азия Ардженто, Lucia Bodenizza, Chiara Brunamonti, Уго Де Сезаре.-Описание: Главный герой — 30-летний графолог Мете, зачарованный тайнами, которые может раскрыть человеческий почерк. За неделю до свадьбы отца с новой пассией сводная сестра Мете, 17-летняя подросток-озорница Белинда, переезжает в его римскую квартиру — и новое соседство становится началом совсем не дружеских отношений.
Премьера (мир): 26 октября 2011, ...
Рейтинг MPAA: Лицам до 17 лет просмотр запрещен-- -- -Релиз группы:
Качество: DVDRip
Формат: AVI
Видео кодек: XviD
Аудио кодеk: AC3
Видео: 640x272 (2.35:1), 25.000 fps, XviD, 1 619 Kbps
Аудио: Аудио #1: AC3, 192 Kbps, 48.0 KHz, 2 ch

МедиаИнфо

General
Complete name                    : GliSfiorati.2011.L1.DVDRip.avi
Format                           : AVI
Format/Info                      : Audio Video Interleave
File size                        : 1.36 GiB
Duration                         : 1h 46mn
Overall bit rate                 : 1 820 Kbps
Video
ID                               : 0
Format                           : MPEG-4 Visual
Format profile                   : Advanced [email protected]
Format settings, BVOP            : Yes
Format settings, QPel            : No
Format settings, GMC             : No warppoints
Format settings, Matrix          : Default (MPEG)
Codec ID                         : XVID
Codec ID/Hint                    : XviD
Duration                         : 1h 46mn
Bit rate                         : 1 619 Kbps
Width                            : 640 pixels
Height                           : 272 pixels
Display aspect ratio             : 2.35:1
Frame rate                       : 25.000 fps
Color space                      : YUV
Chroma subsampling               : 4:2:0
Bit depth                        : 8 bits
Scan type                        : Progressive
Bits/(Pixel*Frame)               : 0.372
Stream size                      : 1.21 GiB (89%)
Writing library                  : XviD 1.2.1 (UTC 2008-12-04)
Audio
ID                               : 1
Format                           : AC-3
Format/Info                      : Audio Coding 3
Mode extension                   : CM (complete main)
Codec ID                         : 2000
Duration                         : 1h 46mn
Bit rate mode                    : Constant
Bit rate                         : 192 Kbps
Channel(s)                       : 2 channels
Channel positions                : Front: L R
Sampling rate                    : 48.0 KHz
Bit depth                        : 16 bits
Stream size                      : 146 MiB (10%)
Alignment                        : Aligned on interleaves
Interleave, duration             : 40 ms (1.00 video frame)

Скриншоты






Постеры






Последний раз редактировалось: jaska-3d (2012-11-21 23:33), всего редактировалось 4 раз(а)

Создавать темы 20-Ноя-2012 07:12

[Профиль]  [ЛС] 

jaska-3d ®

Стаж: 5 лет 11 месяцев

Сообщений: 250

Симпатии: 25

Раздаю после 20:00 до 08:00 утра, если конечно електричество не вырубят...


Последний раз редактировалось: jaska-3d (2012-12-09 11:39), всего редактировалось 1 раз

Создавать темы 20-Ноя-2012 09:16

[Профиль]  [ЛС] 

oskar.uz

Стаж: 5 лет 7 месяцев

Сообщений: 42

Симпатии: 2

автор спасибо за фильм но дай скорости пожалуйста! тя и ночью не слышно!

Создавать темы 21-Ноя-2012 17:34

[Профиль]  [ЛС] 

jaska-3d ®

Стаж: 5 лет 11 месяцев

Сообщений: 250

Симпатии: 25

автор спасибо за фильм но дай скорости пожалуйста! тя и ночью не слышно!
инет гонит
мне бы самому хотелось по быстрее раздать свой релиз, но часто свет вырубают, а если электричество есть то тогда инет нормально не работает,
есть и другие релизы типа этого (Промах), залью как тока этот релиз скачат 5 личеров,...

Создавать темы 21-Ноя-2012 23:55

[Профиль]  [ЛС] 

sher79

Стаж: 7 лет 6 месяцев

Сообщений: 9

Раздаю после 20:00 до 08:00 утра, если конечно електричество не вырубят...
СИД убейся

Создавать темы 26-Ноя-2012 20:45

[Профиль]  [ЛС] 

jaska-3d ®

Стаж: 5 лет 11 месяцев

Сообщений: 250

Симпатии: 25

Раздаю после 20:00 до 08:00 утра, если конечно електричество не вырубят...
СИД убейся
Смотри на скрин ниже

Скрин


Создавать темы 08-Дек-2012 00:52

[Профиль]  [ЛС] 

tattar

Стаж: 5 лет 2 месяца

Сообщений: 49

Симпатии: 10

jaska-3d, Хай, тут на скрине выше , ТИНТО Брасса увидел))) Заинтриговал аж))))))))

Создавать темы 12-Дек-2012 21:42

[Профиль]  [ЛС] 

jaska-3d ®

Стаж: 5 лет 11 месяцев

Сообщений: 250

Симпатии: 25

jaska-3d, Хай, тут на скрине выше , ТИНТО Брасса увидел))) Заинтриговал аж))))))))
есть все его фильмы, классика эроЖанра !

Создавать темы 27-Дек-2012 06:26

[Профиль]  [ЛС] 

tattar

Стаж: 5 лет 2 месяца

Сообщений: 49

Симпатии: 10

jaska-3d, классика всегда в моде) а мог бы выложить пару фильмов???

Создавать темы 28-Дек-2012 16:57

[Профиль]  [ЛС] 

jaska-3d ®

Стаж: 5 лет 11 месяцев

Сообщений: 250

Симпатии: 25

jaska-3d, классика всегда в моде) а мог бы выложить пару фильмов???
Боюсь опять заБанят ! но вечером выложу новинки !!!

Создавать темы 28-Дек-2012 17:13

[Профиль]  [ЛС] 

tattar

Стаж: 5 лет 2 месяца

Сообщений: 49

Симпатии: 10

jaska-3d, классика всегда в моде) а мог бы выложить пару фильмов???
Боюсь опять заБанят ! но вечером выложу новинки !!!
создали отдельную вкладку, типа +18 что ли. Жду тогда, брат)

Создавать темы 28-Дек-2012 20:53

[Профиль]  [ЛС] 

victor0778

Стаж: 6 лет 9 месяцев

Сообщений: 1670

Симпатии: 142

создали отдельную вкладку, типа +18 что ли. Жду тогда, брат)
ага, а вы дадите гарантию что туда будут заходить +18 или у нас в законодательстве есть поправка на +18?

Создавать темы 28-Дек-2012 21:01

[Профиль]  [ЛС] 

tattar

Стаж: 5 лет 2 месяца

Сообщений: 49

Симпатии: 10

создали отдельную вкладку, типа +18 что ли. Жду тогда, брат)
ага, а вы дадите гарантию что туда будут заходить +18 или у нас в законодательстве есть поправка на +18?
не хочу задеть вас чем то, но а вы для чего МОДЕРАТОРЫ??? да и вообще щас любой выпускаемый фильм содержит эротику ну или его составляющую часть.,

Создавать темы 28-Дек-2012 21:15

[Профиль]  [ЛС] 

victor0778

Стаж: 6 лет 9 месяцев

Сообщений: 1670

Симпатии: 142

tattar, один два раза грудь показали это одно, а когда весь смысл фильма заключается только в сексе и о сексе это другое

Создавать темы 28-Дек-2012 21:20

[Профиль]  [ЛС] 

tattar

Стаж: 5 лет 2 месяца

Сообщений: 49

Симпатии: 10

victor0778, на эту тему можно вечно спорить, в принципе у нас не запрещено в РУз эро фильмы, под запретом по+нография, и в этом вся суть

Создавать темы 28-Дек-2012 21:27

[Профиль]  [ЛС] 
Показать сообщения:    
Ответить на тему

Текущее время: 20-Ноя 22:29

Часовой пояс: UTC + 5



Вы не можете начинать темы
Вы не можете отвечать на сообщения
Вы не можете редактировать свои сообщения
Вы не можете удалять свои сообщения
Вы не можете голосовать в опросах
Вы не можете прикреплять файлы к сообщениям
Вы не можете скачивать файлы