Муха / Eega (С.С. Раджамоули / S S Rajamouli) [2012, Индия, Фантастика, DVDRip] VO + Sub Rus

Ответить на тему
 

Suxrob89 ®

Стаж: 7 лет

Сообщений: 933

Симпатии: 564

Муха / Eega
Страна: Индия
Жанр: Фантастика
Год выпуска: 2012
Продолжительность: 02:13:46
Перевод: Одноголосый закадровый - Zamez
Cубтитры: русские
Оригинальная аудиодорожка: Телугу
Режиссер: С.С. Раджамоули / S S Rajamouli
Композитор: М.М. Киравани / M. M. Keeravani
В ролях: Судип, Саманта, Нани
Описание: Нани ухаживал за Бинду два года, но она не принимала его любовь, хотя понимала, что он ей очень нравится. В тот вечер, когда она, наконец, набралась смелости признаться ему в любви... он погиб. Но любовь способна творить чудеса! Любовь побеждает даже смерть... Даже смерть не может остановить человека, возлюбленной которого грозит опасность стать жертвой обезумевшего от любви злодея.
Качество видео: DVDRip
Формат видео: AVI
Видео: Xvid, 672х288 pixel, 23.976 fps, 1 104 kbps
Аудио: AC-3, 48 kHz, 2 ch, 192 kbps (Telugu)
Аудио 2: MP3, 48 kHz, 2 ch, 128 kbps (Zamez)
Формат субтитров: softsub (SRT)
Доп. информация о субтитрах: внешние, полные и на песн

MediaInfo

Format : AVI
Format/Info : Audio Video Interleave
File size : 1.34 GiB
Duration : 2h 13mn
Overall bit rate : 1 438 Kbps
Writing application : VirtualDubMod 1.5.10.2 (build 2540/release)
Writing library : VirtualDubMod build 2540/release
Video
ID : 0
Format : MPEG-4 Visual
Format profile : Advanced [email protected]
Format settings, BVOP : Yes
Format settings, QPel : No
Format settings, GMC : No warppoints
Format settings, Matrix : Custom
Codec ID : XVID
Codec ID/Hint : XviD
Duration : 2h 13mn
Bit rate : 1 104 Kbps
Width : 672 pixels
Height : 288 pixels
Display aspect ratio : 2.35:1
Frame rate : 23.976 fps
Resolution : 8 bits
Colorimetry : 4:2:0
Scan type : Progressive
Bits/(Pixel*Frame) : 0.238
Stream size : 1.03 GiB (77%)
Writing library : XviD 1.2.1 (UTC 2008-12-04)
Audio #1
ID : 1
Format : AC-3
Format/Info : Audio Coding 3
Codec ID : 2000
Duration : 2h 13mn
Bit rate mode : Constant
Bit rate : 192 Kbps
Channel(s) : 2 channels
Channel positions : L R
Sampling rate : 48.0 KHz
Stream size : 184 MiB (13%)
Alignment : Split accross interleaves
Interleave, duration : 42 ms (1.00 video frame)
Interleave, preload duration : 500 ms
Audio #2
ID : 2
Format : MPEG Audio
Format version : Version 1
Format profile : Layer 3
Mode : Joint stereo
Format_Settings_ModeExtension : MS Stereo
Codec ID : 55
Codec ID/Hint : MP3
Duration : 2h 13mn
Bit rate mode : Constant

Это интересно

Муха - единственный фильм на языке телугу, который попал в список претендентов на "Оскар 2012" в категории "Лучший иностранный фильм" от Индии, но уступил это место Barfi.
Фильм был выпущен одновременно с версией на тамильском "Naan Ee" и в дубляже на малаялам под названием Eecha. Позже его дублировали на хинди под названием Makkhi.
Фильм был показан на двух кинофестивалях: L'Étrange Film Festival и Sundance Film Festival, где получил одобрение критиков.
После ошеломляющего успеха, режиссер С.С. Раджамоули объявил о том, что планирует снять продолжение.

Скриншоты



Последний раз редактировалось: Suxrob89 (2012-11-21 18:43), всего редактировалось 1 раз

Создавать темы 21-Ноя-2012 06:50

[Профиль]  [ЛС] 

askars

Стаж: 4 года 11 месяцев

Сообщений: 26

отличный фильм спасибо

Создавать темы 25-Ноя-2012 00:04

[Профиль]  [ЛС] 

kotikk

Стаж: 5 лет 7 месяцев

Сообщений: 12

Симпатии: 3

индусы реально курят

Создавать темы 05-Мар-2013 17:39

[Профиль]  [ЛС] 

Angel-lucky

Стаж: 4 года 6 месяцев

Сообщений: 14

Ауу ребята дайте газу!!! Выложили, а раздача то где?????

Создавать темы 12-Авг-2013 00:42

[Профиль]  [ЛС] 

Angel-lucky

Стаж: 4 года 6 месяцев

Сообщений: 14

Раздачу плизззз

Создавать темы 13-Авг-2013 12:43

[Профиль]  [ЛС] 
Показать сообщения:    
Ответить на тему

Текущее время: 23-Авг 09:26

Часовой пояс: UTC + 5



Вы не можете начинать темы
Вы не можете отвечать на сообщения
Вы не можете редактировать свои сообщения
Вы не можете удалять свои сообщения
Вы не можете голосовать в опросах
Вы не можете прикреплять файлы к сообщениям
Вы не можете скачивать файлы