This is хорошо [2010-2013 г., Юмор]

Тема закрыта
 

jojo1 ®

Стаж: 4 года 10 месяцев

Сообщений: 174

Симпатии: 50

This is хорошо
Год выпуска: -2010-2013
Страна: Латвия
Жанр: Юмор
Продолжительность: 2-7 минут
: Блог посвящён обзору популярных видеороликов в Интернете, по аналогии с шоу американского обозревателя Рэя Уильяма Джонсона[4].
Ведущий программы Стас Давыдов даёт свои комментарии к видеороликам, присланным зрителями. В конце передачи обычно используется интерактив. В ранних выпусках передачи участвовал ещё один персонаж — осветитель Настенька (точнее, её голос), которая начала появляться вновь со 164 выпуска . Отличительная черта проекта — отсутствие нецензурной брани, поэтому зрители YouTube воспринимают блог «This is Хорошо» как альтернативу другому популярному блогу «+100500». Оба блога являются русскоязычными аналогами шоу Рэя Уильяма Джонсона, хотя «TiХ» снимается в Риге.
С 29 выпуска вопросы снимаются, а не пишутся. С 48 выпуска шоу выходит в HD-формате[5], а начиная с 55 выпуска шоу стало выходить с интерактивными субтитрами на английском языке для иностранных пользователей[6].
70[7], 96[8] и 141[9] выпуски провёл Руслан Усачев. Данный факт был не очень дружественно воспринят зрителями — все три раза ролики набрали гораздо больше «Мне не понравилось», чем в остальных выпусках. Большинство комментаторов посчитало Руслана недостаточно артистичным. 146 выпуск провёл Илья Прусикин, что тоже было встречено весьма холодно.
С 87 выпуска проект изменился визуально: создатели изменили надписи на экране из белых в серые с белой каймой, микрофон переместили в нижнюю часть кадра, поменяли дизайн канала на YouTube и фон, на котором снимается ведущий, а также убрали «Индикатор спонтанного безумия». С 97 выпуска в ответах на вопросы, показывающихся в конце видео, исправляются ошибки. А начиная с 100-го выпуска, человек, чей видеовопрос для интерактива был включён в выпуск, получает фирменную футболку от команды «This is Хорошо».
Добавлены все серии,включая последнюю 191


MI

Общее
Полное имя : D:\интернет\This Is Хорошо\This Is Хорошо 01.flv
Формат : Flash Video
Размер файла : 26,6 Мбайт
Продолжительность : 5 м. 3 с.
Общий поток : 733 Кбит/сек
Видео
Формат : Sorenson Spark
Идентификатор кодека : 2
Продолжительность : 5 м. 3 с.
Битрейт : 658 Кбит/сек
Ширина : 480 пикселей
Высота : 264 пикселя
Соотношение сторон : 16:9
Режим частоты кадров : Постоянный
Частота кадров : 25,000 кадров/сек
Битовая глубина : 8 бит
Бит/(Пиксели*Кадры) : 0.208
Размер потока : 24,1 Мбайт (91%)
Аудио
Формат : MPEG Audio
Версия формата : Version 2
Профиль формата : Layer 3
Режим : Joint stereo
Расширение режима : MS Stereo
Идентификатор кодека : 2
Идентификатор кодека/Подсказка : MP3
Продолжительность : 5 м. 3 с.
Вид битрейта : Постоянный
Битрейт : 64,0 Кбит/сек
Каналы : 2 канала
Частота : 22,05 КГц
Метод сжатия : С потерями
Размер потока : 2,50 Мбайт (9%)
Библиотека кодирования : LAME3.96.1

Скриншоты

Раздача идет путем добавления новых серий!


Последний раз редактировалось: jojo1 (2013-01-23 18:10), всего редактировалось 9 раз(а)

Создавать темы 25-Ноя-2012 22:17

[Профиль]  [ЛС] 

iLoVeTheDiLyOrA

Стаж: 5 лет 7 месяцев

Сообщений: 68

Симпатии: 2

у меня тупо не качает :D

Создавать темы 10-Дек-2012 20:59

[Профиль]  [ЛС] 

jojo1 ®

Стаж: 4 года 10 месяцев

Сообщений: 174

Симпатии: 50

у меня тупо не качает :D
Я просто на другой раздачи был....теперь все будет норм))извеняюсь)))

Создавать темы 10-Дек-2012 22:20

[Профиль]  [ЛС] 

iLoVeTheDiLyOrA

Стаж: 5 лет 7 месяцев

Сообщений: 68

Симпатии: 2

ну ты все еще на раздачу не вернулся

Создавать темы 11-Дек-2012 15:14

[Профиль]  [ЛС] 

jojo1 ®

Стаж: 4 года 10 месяцев

Сообщений: 174

Симпатии: 50

Каждый клиент одновременно устанавливает соединения с другими клиентами (исходящие соединения) и ждет когда с ним установят соединение другие клиенты (входящие соединения). Закрытые порты означают что входящие соединения не возможны (остаются только исходящие). Но представьте что у другого пира, с которым Ваш клиент пытается соедениться, тоже закрыты порты, получается он не может принять Ваше исходящее соединение а Вы его, т.е. обмен данными с ним не возможен!!! (о ужас). Ситуацию может исправить третий пир подключившийся к обмену данными у которого открыты порты, он сможет установить соединение с Вами и другим пиром и через него пойдет обмен данными.
Нужно заметить что ситуция когда у двух пиров закрыты порты далеко не редкость. При большом количестве пиров/личеров закрытые порты не будут сильно снижать скорость закачки/отдачи т.к. высока вероятность того что найдется еще хотябы один пир с открытым портом. При малом количестве как повезёт. ((((((((((((

Создавать темы 13-Дек-2012 18:42

[Профиль]  [ЛС] 

Alegro

Стаж: 7 лет 1 месяц

Сообщений: 72

Симпатии: 1

Млин почему не качает? вроде 2 сида

Создавать темы 23-Дек-2012 20:39

[Профиль]  [ЛС] 

edgemza

Стаж: 6 лет 3 месяца

Сообщений: 191

Симпатии: 7

Добавлены все серии,включая последнюю 191
Что-то 191-й выпуск я и не приметил!!!!

Создавать темы 30-Янв-2013 07:11

[Профиль]  [ЛС] 

avsklad

Стаж: 6 лет 8 месяцев

Сообщений: 62

Симпатии: 4

дайте скорость!!!

Создавать темы 22-Фев-2013 22:07

[Профиль]  [ЛС] 

Max90210

Стаж: 4 года 9 месяцев

Сообщений: 40

Симпатии: 3

скорость)))))

Создавать темы 14-Мар-2013 16:52

[Профиль]  [ЛС] 

Mixer City

Стаж: 6 лет 8 месяцев

Сообщений: 754

Симпатии: 63

THIS IS ХОРОШО (выпуски: 0-216) [2010-2013 гг., видеоблог, развлекательная программа, WEBRip]

Создавать темы 25-Апр-2013 13:02

[Профиль]  [ЛС] 

Топик был перенесен из форума Видео ролики, Трейлеры в форум Развлекательные телепередачи и шоу

Mixer City

Создавать темы 25-Апр-2013 13:17

 
Показать сообщения:    
Тема закрыта

Текущее время: 24-Авг 11:56

Часовой пояс: UTC + 5



Вы не можете начинать темы
Вы не можете отвечать на сообщения
Вы не можете редактировать свои сообщения
Вы не можете удалять свои сообщения
Вы не можете голосовать в опросах
Вы не можете прикреплять файлы к сообщениям
Вы не можете скачивать файлы