Феи: Тайна зимнего леса 4 / Secret of the Wings 4 (Роберт Ганнавей, Пегги Холмс) [2012 г., Мультфильм, Семейный, Фэнтези, HDRip]

Ответить на тему
 

antanyletun ®

Стаж: 5 лет 7 месяцев

Сообщений: 74

Симпатии: 3

Феи: Тайна зимнего леса 4 / Secret of the Wings 4 Год выпуска: 2012
Страна: / Disney
Жанр: Мультфильм, Семейный, Фэнтези
Продолжительность: 1:15:04
Перевод: Любительский (двухголосый закадровый)
Режиссер: Роберт Ганнавей, Пегги Холмс
Джесси МакКартни, Люси Лью, Люси Хейл, Мэй Уитман, Мэтт Лантер, Рэйвен, Тимоти Далтон, Анжелика Хьюстон, Дебби Райан, Меган Хилти Динь-Динь и ее подруги всегда боялись пересекать границу с Зимним лесом, ведь существует поверье, что там очень опасно. В один прекрасный день Динь-Динь, сгорая от любопытства, подходит вплотную к лесу, и ее крылья неожиданно начинают блестеть и переливаться. Завороженная Динь, желая узнать тайну волшебных крыльев, кутается в теплое пальто и отправляется в глубь таинственного леса, где ее ждет неожиданное открытие… Доп. информация:

Media Info:

E:\мультики\Fei.taina.zimnego.lesa.2012.L2.HDRip.avi
General
Complete name : E:\мультики\Fei.taina.zimnego.lesa.2012.L2.HDRip.avi
Format : AVI
Format/Info : Audio Video Interleave
File size : 1.37 GiB
Duration : 1h 15mn
Overall bit rate : 2 606 Kbps
Movie name : Fei.taina.zimnego.lesa.2012.L2.HDRip.IRONCLUB
Director : IRONCLUB
Genre : Animation | Action | Family
Writing application : VirtualDubMod 1.5.10.2 (build 2540/release)
Original source form/Name : Animation
Video #0
ID : 0
Format : MPEG-4 Visual
Format profile : Advanced [email protected]
Format settings, BVOP : 2
Format settings, QPel : No
Format settings, GMC : No warppoints
Format settings, Matrix : Default (MPEG)
Codec ID : XVID
Codec ID/Hint : XviD
Duration : 1h 15mn
Bit rate : 1 825 Kbps
Width : 720 pixels
Height : 400 pixels
Display aspect ratio : 16:9
Frame rate : 23.976 fps
Color space : YUV
Chroma subsampling : 4:2:0
Bit depth : 8 bits
Scan type : Progressive
Compression mode : Lossy
Bits/(Pixel*Frame) : 0.264
Stream size : 980 MiB (70%)
Writing library : XviD 1.2.1 (UTC 2008-12-04)
Audio #1
ID : 1
Format : AC-3
Format/Info : Audio Coding 3
Mode extension : CM (complete main)
Codec ID : 2000
Duration : 1h 15mn
Bit rate mode : Constant
Bit rate : 384 Kbps
Channel(s) : 6 channels
Channel positions : Front: L C R, Side: L R, LFE
Sampling rate : 48.0 KHz
Bit depth : 16 bits
Compression mode : Lossy
Stream size : 206 MiB (15%)
Alignment : Split accross interleaves
Interleave, duration : 42 ms (1.00 video frame)
Interleave, preload duration : 500 ms
Audio #2
ID : 2
Format : AC-3
Format/Info : Audio Coding 3
Mode extension : CM (complete main)
Codec ID : 2000
Duration : 1h 15mn
Bit rate mode : Constant
Bit rate : 384 Kbps
Channel(s) : 6 channels
Channel positions : Front: L C R, Side: L R, LFE
Sampling rate : 48.0 KHz
Bit depth : 16 bits
Compression mode : Lossy
Stream size : 206 MiB (15%)
Alignment : Split accross interleaves
Interleave, duration : 42 ms (1.00 video frame)
Interleave, preload duration : 500 ms
Качество: HDRip
Формат: AVI
Видео кодек: XviD
Аудио кодек: AC3
Видео: mpeg4, 720x400, 1 825 kb/s,16:9, 23.976 fps
Аудио: ac3, 48000 Hz, 6 channels, 384 kb/s (rus)
ac3, 48000 Hz, 6 channels, 384 kb/s (eng)

Скриншоты





Последний раз редактировалось: antanyletun (2012-11-29 18:42), всего редактировалось 5 раз(а)

Создавать темы 26-Ноя-2012 19:43

[Профиль]  [ЛС] 

antanyletun ®

Стаж: 5 лет 7 месяцев

Сообщений: 74

Симпатии: 3

очередная 4 часть знаменитого мультфильма для детей от Диснея про Фей...

Создавать темы 26-Ноя-2012 19:44

[Профиль]  [ЛС] 

U.balu80

Стаж: 5 лет 6 месяцев

Сообщений: 18

antanyletun, Спасибо Большое aa

Создавать темы 11-Дек-2012 13:53

[Профиль]  [ЛС] 

antanyletun ®

Стаж: 5 лет 7 месяцев

Сообщений: 74

Симпатии: 3

я рад что вам понравилось...

Создавать темы 13-Дек-2012 01:08

[Профиль]  [ЛС] 

Saske.amir

Стаж: 5 лет 5 месяцев

Сообщений: 257

Симпатии: 6

А почему так: Перевод: Любительский (двухголосый закадровый)
На другом трекере было написано, профессиональный (тоже твоя раздача)

Создавать темы 13-Дек-2012 18:38

[Профиль]  [ЛС] 

antanyletun ®

Стаж: 5 лет 7 месяцев

Сообщений: 74

Симпатии: 3

А почему так: Перевод: Любительский (двухголосый закадровый)
На другом трекере было написано, профессиональный (тоже твоя раздача)
исправленно

Создавать темы 14-Дек-2012 01:47

[Профиль]  [ЛС] 

kinder

Стаж: 5 лет 10 месяцев

Сообщений: 1

классный мультик можно смотреть несколько раз

Создавать темы 20-Мар-2013 19:22

[Профиль]  [ЛС] 

ilshoduz

Стаж: 4 года 5 месяцев

Сообщений: 1

Извеняюсь конечно, а как качать-то?

Создавать темы 30-Июн-2013 15:46

[Профиль]  [ЛС] 

Grock

Стаж: 6 лет 10 месяцев

Сообщений: 637

Симпатии: 113

Извиняюсь конечно, а как качать-то?
Нажимайте на кнопку "Скачать"
Далее открываете скачанный торрент файл и указываете место для сохранения. Если конечно у вас установлен клиент Utorrent или BitTorrent.

Создавать темы 30-Июн-2013 17:38

[Профиль]  [ЛС] 

amuziyo

Стаж: 4 года 9 месяцев

Сообщений: 13

где раздача?

Создавать темы 25-Июл-2014 16:49

[Профиль]  [ЛС] 
Показать сообщения:    
Ответить на тему

Текущее время: 15-Дек 14:56

Часовой пояс: UTC + 5



Вы не можете начинать темы
Вы не можете отвечать на сообщения
Вы не можете редактировать свои сообщения
Вы не можете удалять свои сообщения
Вы не можете голосовать в опросах
Вы не можете прикреплять файлы к сообщениям
Вы не можете скачивать файлы