Операция «Арго» / Argo (Бен Аффлек) [2012 г., триллер, драма, история, биография, WEBRip]

Тема закрыта
 

Optimus Prime ®

Стаж: 4 года 11 месяцев

Сообщений: 32

Симпатии: 4

Операция «Арго» / Argo- -
Год выпуска: 2012
Страна: США
Жанр: триллер, драма, история, биография
Продолжительность: 01:59:49
Перевод: Профессиональный (полное дублирование) CamRip
Примечение: Присутствуют неотключаемые китайские субтитры.-Режиссер: Бен Аффлек-В ролях: Бен Аффлек Брайан Крэнстон Алан Аркин Джон Гудмен Виктор Гарбер Тейт Донован Клеа Дюваль Скут МакНэйри Рори Кокрейн Кристофер Денхам
Роли дублировали: Василий Дахненко Алексей Рязанцев Александр Новиков Сергей Бурунов Анастасия Нестеренко-Описание: 4 ноября 1979 г. революция в Иране достигает своего апогея, исламисты штурмуют посольство США в Тегеране и берут в заложники 52 американца. Но в этом хаосе шестерым удается ускользнуть и найти прибежище в доме канадского посла. Понимая, что их обнаружение и, вероятнее всего, убийство — всего лишь вопрос времени, Тони Мендес, специалист ЦРУ по тайному вывозу людей из страны, предлагает рискованный план безопасной эвакуации. План столь невероятен, что такое бывает только в кино.-Доп. информация:
IMDB рейтинг: 8.30 (34 313 голосов)
Кинопоиск рейтинг: 8.169 (4 051 голосов)

бюджет $44 500 000
сборы в США $98 114 000
сборы в мире $98 114 000+ $50 000 000 = $148 114 000
сборы в России $1 474 025
премьера (мир) 31 августа 2012, ...
премьера (РФ) 8 ноября 2012, «Каро-Премьер»-Качество: WEBRip
Формат: mp4
Видео кодек: H264
Аудио кодек: AAC
Видео: MPEG4 Video (H264) 640x480 29.97fps 596 Kbps
Аудио: AAC 44100Hz stereo 149 Kbps 2 channels 44.1 KHz
-

MediaInfo

General
Complete name : G:\Torrent\Downloads\Argo.2012..WEBRip.mp4
Format : MPEG-4
Format profile : Base Media
Codec ID : isom
File size : 643 MiB
Duration : 1h 59mn
Overall bit rate mode : Variable
Overall bit rate : 750 Kbps
Encoded date : UTC 2012-11-26 15:26:34
Tagged date : UTC 2012-11-26 15:26:34
Writing application : Lavf51.12.1
Video
ID : 1
Format : AVC
Format/Info : Advanced Video Codec
Format profile : [email protected]
Format settings, CABAC : No
Format settings, ReFrames : 1 frame
Format settings, GOP : M=1, N=12
Codec ID : avc1
Codec ID/Info : Advanced Video Coding
Duration : 1h 59mn
Bit rate : 596 Kbps
Width : 640 pixels
Height : 480 pixels
Display aspect ratio : 4:3
Frame rate mode : Constant
Frame rate : 29.970 fps
Color space : YUV
Chroma subsampling : 4:2:0
Bit depth : 8 bits
Scan type : Progressive
Bits/(Pixel*Frame) : 0.065
Stream size : 511 MiB (80%)
Encoded date : UTC 2012-11-26 15:26:34
Tagged date : UTC 2012-11-26 15:26:34
Audio
ID : 2
Format : AAC
Format/Info : Advanced Audio Codec
Format profile : LC
Codec ID : 40
Duration : 1h 59mn
Bit rate mode : Variable
Bit rate : 149 Kbps
Channel(s) : 2 channels
Channel positions : Front: L R
Sampling rate : 44.1 KHz
Compression mode : Lossy
Stream size : 128 MiB (20%)
Encoded date : UTC 2012-11-26 15:26:34
Tagged date : UTC 2012-11-26 15:26:34
-

Скриншоты

-


Последний раз редактировалось: Optimus Prime (2012-11-27 00:17), всего редактировалось 7 раз(а)

Создавать темы 26-Ноя-2012 20:05

[Профиль]  [ЛС] 

dj_kazantip

Стаж: 5 лет 1 месяц

Сообщений: 42

Симпатии: 5

а где Скриншоты???

Создавать темы 26-Ноя-2012 20:07

[Профиль]  [ЛС] 

root

Стаж: 5 лет 4 месяца

Сообщений: 592

Симпатии: 172

вечно в китае все быстрее выходит

Создавать темы 26-Ноя-2012 20:17

[Профиль]  [ЛС] 

Optimus Prime ®

Стаж: 4 года 11 месяцев

Сообщений: 32

Симпатии: 4

JFK, да bx

Создавать темы 26-Ноя-2012 20:20

[Профиль]  [ЛС] 

victor0778

Стаж: 6 лет 8 месяцев

Сообщений: 1670

Симпатии: 142

Optimus Prime, кодеки отдельно укажите и укажите что присутствуют не отключаемые корейские субтитры

Создавать темы 26-Ноя-2012 21:24

[Профиль]  [ЛС] 

zerg

Стаж: 5 лет 7 месяцев

Сообщений: 96

Симпатии: 7

в сети есть это http://rutor.org/torrent/236051/operacija-%C2%ABarg...2-webrip-zvuk-ts
надеюсь скоро BDRip будет. отзывы сногсшибательные.

Создавать темы 26-Ноя-2012 21:38

[Профиль]  [ЛС] 

ziyod

Стаж: 7 лет 7 месяцев

Сообщений: 367

Симпатии: 60

Операция «Арго» / Argo (Бен Аффлек) [2012 г., Триллер, драма, биография,HDRip]

Создавать темы 02-Фев-2013 07:47

[Профиль]  [ЛС] 
Показать сообщения:    
Тема закрыта

Текущее время: 23-Окт 22:18

Часовой пояс: UTC + 5



Вы не можете начинать темы
Вы не можете отвечать на сообщения
Вы не можете редактировать свои сообщения
Вы не можете удалять свои сообщения
Вы не можете голосовать в опросах
Вы не можете прикреплять файлы к сообщениям
Вы не можете скачивать файлы