Самый пьяный округ в мире / Lawless (Джон Хиллкоут) [2012 г., драма, криминал, HDRip]

Ответить на тему
 

Optimus Prime ®

Стаж: 4 года 11 месяцев

Сообщений: 32

Симпатии: 4

- -
Год выпуска: 2012
Страна: США
Жанр: драма, криминал
Продолжительность: 01:55:45
Перевод: Любительский (одноголосый)-Режиссер: Джон Хиллкоут-В ролях: Шайа ЛаБаф, Том Харди, Гари Олдман, Джессика Честейн, Гай Пирс, Джейсон Кларк, Миа Васиковска, Дэйн ДеХаан, Крис МакГарри-Описание: Действие в картине разворачивается на американском Юге во времена сухого закона и Великой Депрессии. В центре сюжета — семья Бондурант, три брата, Джек, Форрест и Говард, которые занимаются запрещенным в то время бизнесом, бутлегерством.
Оптимистично настроенный Джек, самый молодой из братьев, надеется с помощью бутлегерства заработать денег и произвести впечатление на свою девушку Берту. В это же время Форрест, напротив, настроен очень мрачно, он молчалив и подозрителен, а Говарду к тому же часто приходится иметь дело с врагами незаконного семейного бизнеса, в лице которых выступают коррумпированные местные полицейские.
-Качество: HDRip
Формат: AVI
Видео кодек: XviD
Аудио кодек: AC3
Видео: 720х304 pixels, 1 233 Kbps, 23.976 fps, 4:2:0
Аудио: Audio Coding 3, 448 Kbps, 6 channels, 48.0 KHz, 16 bits
-

Посторы

-

Доп. информация

IMDB рейтинг: 7.40 (29,939 голосов)
Кинопоиск рейтинг: 7.419 (1 907 голосов)

бюджет $26 000 000
сборы в США $37 398 733
сборы в мире + $15 478 481 = $52 877 214
Oфициальный сайт: Самый пьяный округ в мире
-

MediaInfo

General
Complete name : D:\Torrent\Downloads\Самый пьяный округ в мире.2012.HDRip.avi
Format : AVI
Format/Info : Audio Video Interleave
File size : 1.37 GiB
Duration : 1h 55mn
Overall bit rate : 1 690 Kbps
Writing application : VirtualDubMod 1.5.10.2 (build 2540/release)
Writing library : VirtualDubMod build 2540/release
Video
ID : 0
Format : MPEG-4 Visual
Format profile : Advanced [email protected]
Format settings, BVOP : 2
Format settings, QPel : No
Format settings, GMC : No warppoints
Format settings, Matrix : Default (MPEG)
Codec ID : XVID
Codec ID/Hint : XviD
Duration : 1h 55mn
Bit rate : 1 233 Kbps
Width : 720 pixels
Height : 304 pixels
Display aspect ratio : 2.35:1
Frame rate : 23.976 fps
Color space : YUV
Chroma subsampling : 4:2:0
Bit depth : 8 bits
Scan type : Progressive
Compression mode : Lossy
Bits/(Pixel*Frame) : 0.235
Stream size : 1 021 MiB (73%)
Writing library : XviD 1.2.1 (UTC 2008-12-04)
Audio
ID : 1
Format : AC-3
Format/Info : Audio Coding 3
Mode extension : CM (complete main)
Codec ID : 2000
Duration : 1h 55mn
Bit rate mode : Constant
Bit rate : 448 Kbps
Channel(s) : 6 channels
Channel positions : Front: L C R, Side: L R, LFE
Sampling rate : 48.0 KHz
Bit depth : 16 bits
Compression mode : Lossy
Stream size : 371 MiB (27%)
Alignment : Split accross interleaves
Interleave, duration : 42 ms (1.00 video frame)
Interleave, preload duration : 500 ms
-

Скриншоты



Последний раз редактировалось: Optimus Prime (2012-11-29 10:20), всего редактировалось 3 раз(а)

Создавать темы 29-Ноя-2012 09:53

[Профиль]  [ЛС] 

victor0778

Стаж: 6 лет 8 месяцев

Сообщений: 1670

Симпатии: 142

Самый пьяный округ в мире / Lawless (Джон Хиллкоут) [2012 г., Драма, Криминал, HDRip]

Создавать темы 30-Ноя-2012 19:36

[Профиль]  [ЛС] 
Показать сообщения:    
Ответить на тему

Текущее время: 23-Окт 10:58

Часовой пояс: UTC + 5



Вы не можете начинать темы
Вы не можете отвечать на сообщения
Вы не можете редактировать свои сообщения
Вы не можете удалять свои сообщения
Вы не можете голосовать в опросах
Вы не можете прикреплять файлы к сообщениям
Вы не можете скачивать файлы