Бой с тенью 3D: Последний раунд (Алексей Сидоров) [2011 г., боевик, драма, криминал, приключения, BDRip] (Half SideBySide / Горизонтальная анаморфная стереопара)

Ответить на тему
 

Hamzaali ®

Стаж: 6 лет 10 месяцев

Сообщений: 24

Симпатии: 5

Бой с тенью 3D: Последний раунд- Год выпуска: 2011
Страна: Россия
Жанр: боевик, драма, криминал, приключения
Продолжительность: 02:06:36
Перевод: Оригинал русский
Режиссер: Алексей Сидоров
В ролях: Денис Никифоров, Андрей Панин, Елена Панова, Бату Хасиков, Михаил Горевой, Дмитрий Шевченко, Ольга Дибцева, Софья Мицкевич
Описание: Боксер-чемпион Артем Колчин достиг всех мыслимых вершин и стал национальным героем. На ринг он больше не выходит, предпочитая тренерскую работу и бурную светскую жизнь с постоянным мельканием на ТВ, тусовками и интрижками. А дома его по утрам встречают дочка и жена Вика, которая больше не узнает в нем того Артема, которого она когда-то полюбила...Внешне благополучному существованию Колчина приходит конец, когда его подопечного чуть не убивает в бою знаменитый Куэрте. Артем подозревает, что тот использует некую запрещенную технику. За доказательствами ему приходится отправиться в Гонконг, где его ждет старый знакомый Вагит Валиев: он знает о Куэрте то, чего не знает больше ни один человек. Чтобы победить, Артему придется снова выйти на ринг.
Качество: BDRip
Формат: ts
Формат 3D: Half SideBySide / Горизонтальная анаморфная стереопара
Видео кодек: MPEG2
Аудио кодек: AC3
Видео: MPEG2 Video 1920x1080 29.97fps 104857kbps
Аудио: Dolby AC3 44100Hz stereo 320kbps

MediaInfo

General
ID : 1 (0x1)
Complete name : Z:\MultiMedia\3D\Бой с тенью 3D. Последний раунд в 3Д (Алексей Сидоров) [2011, боевик, драма, криминал, приключения, BDrip-avc] Half SideBySide - Горизонтальная анаморфная стереопара\BOY S TEN'U 3.ts
Format : MPEG-TS
File size : 11.2 GiB
Duration : 1h 58mn
Overall bit rate mode : Constant
Overall bit rate : 13.5 Mbps
Video
ID : 256 (0x100)
Menu ID : 1 (0x1)
Format : MPEG Video
Format version : Version 2
Format profile : [email protected]
Format settings, BVOP : No
Format settings, Matrix : Default
Format settings, GOP : N=12
Codec ID : 2
Duration : 2h 6mn
Bit rate mode : Variable
Bit rate : 12.5 Mbps
Width : 1 920 pixels
Height : 1 080 pixels
Display aspect ratio : 16:9
Frame rate : 29.970 fps
Color space : YUV
Chroma subsampling : 4:2:0
Bit depth : 8 bits
Scan type : Progressive
Compression mode : Lossy
Bits/(Pixel*Frame) : 0.202
Stream size : 11.1 GiB (99%)
Audio
ID : 257 (0x101)
Menu ID : 1 (0x1)
Format : AC-3
Format/Info : Audio Coding 3
Mode extension : CM (complete main)
Format settings, Endianness : Big
Codec ID : 129
Duration : 2h 6mn
Bit rate mode : Constant
Bit rate : 320 Kbps
Channel(s) : 2 channels
Channel positions : Front: L R
Sampling rate : 44.1 KHz
Bit depth : 16 bits
Compression mode : Lossy
Stream size : 290 MiB (3%)
Language : Russian
Menu
ID : 4095 (0xFFF)
Menu ID : 1 (0x1)
Duration : 1h 58mn
List : 256 (0x100) (MPEG Video) / 257 (0x101) (AC-3, Russian)
Language : / Russian
Service name : Service01
Service provider : FFmpeg
Service type : digital television

Скриншоты

Создавать темы 29-Ноя-2012 17:26

[Профиль]  [ЛС] 
Показать сообщения:    
Ответить на тему

Текущее время: 20-Ноя 12:47

Часовой пояс: UTC + 5



Вы не можете начинать темы
Вы не можете отвечать на сообщения
Вы не можете редактировать свои сообщения
Вы не можете удалять свои сообщения
Вы не можете голосовать в опросах
Вы не можете прикреплять файлы к сообщениям
Вы не можете скачивать файлы