Мстители / The Avengers (Джосс Уидон) [2012 г., фантастика, боевик, приключения, BDRip] (Half SideBySide / Горизонтальная анаморфная стереопара)

Страницы :  1, 2  След.

Ответить на тему
 

Hamzaali ®

Стаж: 6 лет 8 месяцев

Сообщений: 24

Симпатии: 5

-Мстители / The Avengers Год выпуска: 2012
Страна: США
Жанр: фантастика, боевик, приключения
Продолжительность: 02:22:54
Перевод: Профессиональный (полное дублирование)
Режиссер: Джосс Уидон
В ролях: Роли исполняли - (дублировали):
Тони Старк / Железный человек - Роберт Дауни мл. (Владимир Зайцев)
Стив Роджерс / Капитан Америка - Крис Эванс (Даниил Эльдаров)
Брюс Баннер / Халк - Марк Руффало (Алексей Мясников)
Тор - Крис Хемсворт (Иван Жарков)
Наташа Романофф / Чёрная вдова - Скарлетт Йоханссон (Татьяна Шитова)
Клинт Бартон / Соколиный Глаз - Джереми Реннер (Илья Исаев)
Локи - Том Хиддлстон (Александр Гаврилин)
Ник Фьюри - Сэмюэл Л. Джексон (Владимир Антоник)
Агент Фил Коулсон - Кларк Грегг (Андрей Казанцев)
Агент Мария Хилл - Коби Смолдерс (Наталья Грачева)
Сельвиг - Стеллан Скарсгард (Василий Бочкарев)
Пеппер Поттс - Гвинет Пэлтроу (Полина Щербакова)
Джарвис (озвучка) - Пол Беттани (Вячеслав Баранов)
Описание: Локи, сводный брат Тора, возвращается, и в этот раз он не один. Земля на грани порабощения, и только лучшие из лучших могут спасти человечество.Ник Фьюри, глава международной организации Щ. И. Т., собирает выдающихся поборников справедливости и добра, чтобы отразить атаку. Под предводительством Капитана Америки Железный Человек, Тор, Невероятный Халк, Соколиный глаз и Чёрная Вдова вступают в войну с захватчиком.
-
Доп. информация:
Сценарий: Джосс Уидон, Джек Кирби, Джо Саймон, ...
Продюсер: Кевин Файги, Виктория Алонсо, Луис Д’Эспозито, ...
Оператор: Шеймас МакГарви
Композитор: Алан Сильвестри
Художник: Джеймс Чинланд, Бенжамин Эдельберг, Янн К. Энджел, ...
Монтаж: Джеффри Форд, Лиза Лэссек
Бюджет: $220 000 000
Сборы в США: $623 357 910
Сборы в мире: + $888 800 000 = $1 512 157 910
Сборы в России: $43 412 056
Зрители: Китай 13.3 млн , Бразилия 10.9 млн , Корея Южная 7.07 млн
Премьера (мир): 11 апреля 2012, ...
Премьера (РФ): 3 мая 2012, «WDSSPR» 3D
Релиз на DVD: 28 августа 2012, «Уолт Дисней Компани СНГ», ...
Релиз на Blu-Ray: 28 августа 2012, «Уолт Дисней Компани СНГ», ...
Рейтинг MPAA: Детям до 13 лет просмотр не желателен
Качество: BDRip
Формат: ts
Формат 3D: Half SideBySide / Горизонтальная анаморфная стереопара
Видео кодек: Другой MPEG4
Аудио кодек: AC3
Видео: MPEG4 Video (H264) 1920x1080 23.98fps
Аудио: Dolby AC3 48000Hz stereo 224kbps

MediaInfo

General
ID : 1 (0x1)
Complete name : Мстители 3D.ts
Format : MPEG-TS
File size : 8.80 GiB
Duration : 2h 22mn
Overall bit rate : 8 820 Kbps
Video
ID : 256 (0x100)
Menu ID : 1 (0x1)
Format : AVC
Format/Info : Advanced Video Codec
Format profile : [email protected]
Format settings, CABAC : Yes
Format settings, ReFrames : 3 frames
Format settings, GOP : M=1, N=3
Codec ID : 27
Duration : 2h 22mn
Bit rate : 8 000 Kbps
Width : 1 920 pixels
Height : 1 080 pixels
Display aspect ratio : 16:9
Frame rate mode : Variable
Color space : YUV
Chroma subsampling : 4:2:0
Bit depth : 8 bits
Scan type : Progressive
Stream size : 8.14 GiB (92%)
Writing library : x264 core 112
Encoding settings : cabac=1 / ref=3 / deblock=1:0:0 / analyse=0x3:0x113 / me=hex / subme=7 / psy=1 / psy_rd=1.00:0.00 / mixed_ref=1 / me_range=16 / chroma_me=1 / trellis=1 / 8x8dct=1 / cqm=0 / deadzone=21,11 / fast_pskip=1 / chroma_qp_offset=-2 / threads=1 / sliced_threads=0 / nr=0 / decimate=1 / interlaced=0 / constrained_intra=0 / bframes=3 / b_pyramid=0 / b_adapt=1 / b_bias=0 / direct=1 / weightb=1 / open_gop=0 / weightp=2 / keyint=250 / keyint_min=25 / scenecut=40 / intra_refresh=0 / rc_lookahead=40 / rc=abr / mbtree=1 / bitrate=8000 / ratetol=1.0 / qcomp=0.60 / qpmin=10 / qpmax=51 / qpstep=4 / ip_ratio=1.41 / aq=1:1.00
Audio
ID : 257 (0x101)
Menu ID : 1 (0x1)
Format : AC-3
Format/Info : Audio Coding 3
Mode extension : CM (complete main)
Format settings, Endianness : Big
Codec ID : 129
Duration : 2h 22mn
Bit rate mode : Constant
Bit rate : 224 Kbps
Channel(s) : 2 channels
Channel positions : Front: L R
Sampling rate : 48.0 KHz
Bit depth : 16 bits
Compression mode : Lossy
Stream size : 229 MiB (3%)
Language : Russian
Menu
ID : 4095 (0xFFF)
Menu ID : 1 (0x1)
Duration : 2h 22mn
List : 256 (0x100) (AVC) / 257 (0x101) (AC-3, Russian)
Language : / Russian
Service name : MARVELS_THE_AVENGERS_3D.Title800.Bluray3DRip
Service provider : FFmpeg
Service type : digital television

Скриншоты






Последний раз редактировалось: Hamzaali (2012-12-03 16:18), всего редактировалось 1 раз

Создавать темы 01-Дек-2012 13:47

[Профиль]  [ЛС] 

xakerjon

Стаж: 5 лет 8 месяцев

Сообщений: 8

дайте больше скорости

Создавать темы 08-Дек-2012 10:30

[Профиль]  [ЛС] 

Hasanbek

Стаж: 6 лет 4 месяца

Сообщений: 161

Симпатии: 6

Сидер,куда пропал??? bh

Создавать темы 14-Дек-2012 08:40

[Профиль]  [ЛС] 

Yusya

Стаж: 5 лет

Сообщений: 47

Симпатии: 4

дайте скорости

Создавать темы 05-Янв-2013 11:17

[Профиль]  [ЛС] 

SerGIO TIEMPO

Стаж: 5 лет 6 месяцев

Сообщений: 3

здарова, ребят скажите чем отличается эта запись от обычного BD Rip? и стоит ли качать?

Создавать темы 07-Янв-2013 15:31

[Профиль]  [ЛС] 

agash

Стаж: 5 лет 6 месяцев

Сообщений: 6

Симпатии: 1

дайте больше скорости

Создавать темы 07-Янв-2013 23:20

[Профиль]  [ЛС] 

number-one-91

Стаж: 6 лет 4 месяца

Сообщений: 5

Симпатии: 2

дайте больше скорости

Создавать темы 10-Янв-2013 13:59

[Профиль]  [ЛС] 

number-one-91

Стаж: 6 лет 4 месяца

Сообщений: 5

Симпатии: 2

дайте больше скорости пожалусто

Создавать темы 10-Янв-2013 14:00

[Профиль]  [ЛС] 

number-one-91

Стаж: 6 лет 4 месяца

Сообщений: 5

Симпатии: 2

дайте больше скорости пожалусто ...

Создавать темы 10-Янв-2013 14:38

[Профиль]  [ЛС] 

D_UM

Стаж: 6 лет 4 месяца

Сообщений: 18

Симпатии: 4

действительно скорости не хватает

Создавать темы 03-Фев-2013 00:36

[Профиль]  [ЛС] 

shuxa_8454

Стаж: 5 лет 7 месяцев

Сообщений: 15

Симпатии: 3

раздачу дайте

Создавать темы 13-Фев-2013 21:51

[Профиль]  [ЛС] 

D_UM

Стаж: 6 лет 4 месяца

Сообщений: 18

Симпатии: 4

дайте скорость ребята

Создавать темы 15-Фев-2013 00:46

[Профиль]  [ЛС] 

dilshod0309

Стаж: 5 лет 5 месяцев

Сообщений: 12

золота плииииизз!!!!!!

Создавать темы 18-Фев-2013 20:40

[Профиль]  [ЛС] 

D_UM

Стаж: 6 лет 4 месяца

Сообщений: 18

Симпатии: 4

очень долго качается месяц другой кончается

Создавать темы 19-Фев-2013 17:34

[Профиль]  [ЛС] 

shuxa_8454

Стаж: 5 лет 7 месяцев

Сообщений: 15

Симпатии: 3

Hamzaali, Hamzaali,

Создавать темы 20-Фев-2013 15:22

[Профиль]  [ЛС] 
Показать сообщения:    
Ответить на тему

Текущее время: 24-Сен 15:30

Часовой пояс: UTC + 5



Вы не можете начинать темы
Вы не можете отвечать на сообщения
Вы не можете редактировать свои сообщения
Вы не можете удалять свои сообщения
Вы не можете голосовать в опросах
Вы не можете прикреплять файлы к сообщениям
Вы не можете скачивать файлы