Эволюция Борна / The Bourne Legacy (Тони Гилрой) [2012 г., Боевик, детектив, триллер, приключения, HDRip]

Ответить на тему
 

Sharaf_chuv ®

Стаж: 5 лет 2 месяца

Сообщений: 36

Симпатии: 1

Эволюция Борна / The Bourne Legacy Год выпуска: 2012
Страна: США
Жанр: Боевик, детектив, триллер, приключения
Продолжительность: 02:15:02
Перевод: Профессиональный (полное дублирование) звук TS
Режиссер: Тони Гилрой
В ролях: Джереми Реннер, Рейчел Вайс, Эдвард Нортон, Джоан Аллен, Альберт Финни, Скотт Гленн
Описание: В игре всегда несколько фигур. Одна из них — Джейсон Борн, другая — совершенный агент Аарон Кросс. Их возможности безграничны. Но даже у идеального оружия бывают сбои…-
Бюджет 125 млн. долл. Сборы 265,503,870 долл.
-Качество: HDRip
Формат: AVI
Видео кодек: DivX
Аудио кодек: MPEG Audio
Видео: 720x304, 23.976 fps, 1513 kbps
Аудио: MPEG Layer 3, 2 CH, 44.100 kHz, 128.00 kbps http://mover.uz/watch/N6qSm3hj/
Интересные факты
  • На главную роль рассматривались Джейк Джилленхол, Тоби Магуайр, Джош Хартнетт, Гаррет Хедлунд, Майкл Фассбендер, Алекс Петтифер, Пол Дано, Тейлор Китч, Келлан Латс, Бенджамин Уокер, Оскар Айзек, Люк Эванс, Майкл Питт, Крис Эванс, Доминик Купер, Джоэл Эдгертон и Эррин Аркин.
  • Исполнители главных ролей, Эдвард Нортон и Джереми Реннер, оба в своё время играли супергероев, входящих в команду Мстителей: Нортон играл Халка (точнее — Брюса Беннера, человеческую ипостась Халка) в фильме Невероятный Халк, а Реннер — Соколиного глаза в фильмах Тор и Мстители (в котором Нортона заменил Марк Руффало).
  • Первоначально фильм планировался как экранизация одноимённого романа Эрика ван Ластбадера, но Мэтт Дэймон отказался от роли Джейсона Борна, так как не хотел сниматься в фильме без участия Пола Гринграсса (режиссёра фильмов «Превосходство Борна» и «Ультиматум Борна»), поэтому сценаристы превратили фильм в оригинальное произведение, дополняющее сюжет трилогии.
  • Гонорар Джереми Реннера за исполнение главной роли в этом фильме составляет $ 5 000 000, что намного меньше чем у Мэтта ДэймонаИдентификация Борна» — $ 10 000 000, «Превосходство Борна» — $ 10 000 000, «Ультиматум Борна» — $ 20 000 000)
  • Джулия Стайлз, которая играла в предыдущих частях Никки Парсонс, не смогла принять участие в фильме, так как сценарист Тони Гилрой посчитал, что ее присутствие без Джейсона Борна будет лишним.
  • Песня Moby «Extreme Ways» звучит в конце всех четырёх фильмов про Джейсона Борна.
    Продолжение
    В июне 2012 года продюсер Фрэнк Маршалл, рассказывая о перспективах фильма «Эволюция Борна», заявил что «[он] мечтает о том, чтобы в следующем фильме увидеть, как Мэтт [Дэймон] и Джереми [Реннер] работают вместе.» 3 августа Джереми Реннер (появление которого возможно в пятой части) заявил, что хотел бы сыграть с Мэттом Деймоном в следующем фильме франшизы.Мэтт Дэймон может вернуться к роли Джейсона Борна только при участии Пола Гринграсса, (который снимать продолжение франшизы в ближайшее время не намерен), и при условии, что пятый фильм не будет продолжением фильма «Эволюция Борна». Поэтому возвращение Мэтта Дэймона к роли Джейсона Борна маловероятно.
  • -Романы Роберта Ладлэма - Идентификация Борна (1980) • Превосходство Борна (1986) • Ультиматум Борна (1990)
    Романы Эрика Ван Ластбадера - Наследие Борна (2004) • Предательство Борна (2007) • Санкция Борна (2008) • Обман Борна (2009) • Цель Борна (2010) • Господство Борна (2011) • Крах Борна (2012)
    Телефильм - Тайна личности Борна (1988)
    Серия фильмов - Идентификация Борна (2002) • Превосходство Борна (2004) • Ультиматум Борна (2007) • Эволюция Борна (2012)
    Видеоигра - Конспирация Борна (2008)

    MediaInfo

    E:\Evolucija.Borna.2012.Dt..HDRip.avi
    General
    Complete name : E:\Evolucija.Borna.2012.Dt..HDRip.avi
    Format : AVI
    Format/Info : Audio Video Interleave
    File size : 1.56 GiB
    Duration : 2h 15mn
    Overall bit rate : 1 654 Kbps
    Video #0
    ID : 0
    Format : AVC
    Format/Info : Advanced Video Codec
    Format profile : [email protected]
    Format settings, CABAC : Yes
    Format settings, ReFrames : 1 frame
    Codec ID : X264
    Codec ID/Info : XiWave GNU GPL x264 MPEG-4
    Duration : 2h 15mn
    Bit rate : 1 514 Kbps
    Width : 720 pixels
    Height : 304 pixels
    Display aspect ratio : 2.35:1
    Frame rate : 23.976 fps
    Color space : YUV
    Chroma subsampling : 4:2:0
    Bit depth : 8 bits
    Scan type : Progressive
    Bits/(Pixel*Frame) : 0.288
    Stream size : 1.43 GiB (92%)
    Audio #1
    ID : 1
    Format : MPEG Audio
    Format version : Version 1
    Format profile : Layer 3
    Codec ID : 55
    Codec ID/Hint : MP3
    Duration : 2h 15mn
    Bit rate mode : Constant
    Bit rate : 128 Kbps
    Channel(s) : 2 channels
    Sampling rate : 44.1 KHz
    Compression mode : Lossy
    Stream size : 124 MiB (8%)
    Alignment : Split accross interleaves
    Interleave, duration : 26 ms (0.63 video frame)
    Interleave, preload duration : 96 ms
    Writing library : LAME3.98.2

    Скриншоты






    Последний раз редактировалось: Sharaf_chuv (2012-12-04 21:57), всего редактировалось 2 раз(а)

    Создавать темы 03-Дек-2012 08:07

    [Профиль]  [ЛС] 

    Sharaf_chuv ®

    Стаж: 5 лет 2 месяца

    Сообщений: 36

    Симпатии: 1

    Друзья у нас свет вырубили уже как три часа, садится ИБП...буду на раздаче как дадут свет!

    Создавать темы 03-Дек-2012 15:48

    [Профиль]  [ЛС] 

    volume

    Стаж: 7 лет 2 месяца

    Сообщений: 228

    Симпатии: 11

    Жаль, звук с TS
    когда будет лицензионный звук?

    Создавать темы 03-Дек-2012 18:03

    [Профиль]  [ЛС] 

    Sharaf_chuv ®

    Стаж: 5 лет 2 месяца

    Сообщений: 36

    Симпатии: 1

    Жаль, звук с TS
    когда будет лицензионный звук?
    Лицензия через 10 дней!

    Создавать темы 03-Дек-2012 23:51

    [Профиль]  [ЛС] 

    slap_nuts

    Стаж: 7 лет 5 месяцев

    Сообщений: 85

    СКРИНЫ ЧЕТКИЕ,,,,фильм качать не надо даже)))

    Создавать темы 03-Дек-2012 23:55

    [Профиль]  [ЛС] 

    Sharaf_chuv ®

    Стаж: 5 лет 2 месяца

    Сообщений: 36

    Симпатии: 1

    СКРИНЫ ЧЕТКИЕ,,,,фильм качать не надо даже)))
    tf В каждой анимации по 4 скрина) в итоге 16 скринов...можно даже не смотреть фильм pc

    Создавать темы 04-Дек-2012 00:02

    [Профиль]  [ЛС] 

    zerg

    Стаж: 5 лет 8 месяцев

    Сообщений: 96

    Симпатии: 7

    СКРИНЫ ЧЕТКИЕ,,,,фильм качать не надо даже)))
    tf В каждой анимации по 4 скрина) в итоге 16 скринов...можно даже не смотреть фильм pc
    главное глаза не сломать)

    Создавать темы 04-Дек-2012 00:09

    [Профиль]  [ЛС] 

    signup

    Стаж: 5 лет

    Сообщений: 4

    Симпатии: 1

    ха-ха скрины зачет, я даже не понял сначала подумал браузер гонит

    Создавать темы 04-Дек-2012 01:05

    [Профиль]  [ЛС] 

    victor0778

    Стаж: 6 лет 9 месяцев

    Сообщений: 1670

    Симпатии: 142

    Эволюция Борна / The Bourne Legacy (Тони Гилрой / Tony Gilroy) [2012, США, боевик, триллер, детектив, приключения, HDRip] Dub

    Создавать темы 05-Дек-2012 03:41

    [Профиль]  [ЛС] 
    Показать сообщения:    
    Ответить на тему

    Текущее время: 19-Ноя 03:59

    Часовой пояс: UTC + 5



    Вы не можете начинать темы
    Вы не можете отвечать на сообщения
    Вы не можете редактировать свои сообщения
    Вы не можете удалять свои сообщения
    Вы не можете голосовать в опросах
    Вы не можете прикреплять файлы к сообщениям
    Вы не можете скачивать файлы