Ступени цивилизации. Чудеса Вселенной / Wonders of the Universe (4 серии) (Крис Холт) [2011, Документальный, BDrip]

Ответить на тему
 

PupuseG ®

Стаж: 4 года 10 месяцев

Сообщений: 514

Симпатии: 64

-Чудеса Вселенной / Wonders of the Universe- Год выхода: 2011
Страна: Великобритания
Жанр: Документальный, Сериал
Продолжительность: 4 х ~ 00:59:03
Перевод: Русский одноголосый закадровый, студия "Омикрон" + Оригинальная английская дорожка-Режиссер: Stephen Cooter, Крис Холт, Михаэль Лачман
В ролях: Брайан Кокс-О фильме:
Кто мы? Почему мы здесь? Откуда мы пришли? Это самые фундаментальные и извечные вопросы которые мы можем задать. И это неотъемлемая часть человеческой природы, которая стремиться найти на них ответы.-Мы можем проследить нашу родословную на протяжении сотен тысяч лет до самой зари человечества. Но на самом деле наша история простирается гораздо дальше:
Она начинается с начала вселенной. Наша Вселенная зародилась примерно 13,7 миллиардов лет назад, и сегодня она наполнена более чем 100 миллиардами галактик. И каждая из них содержит сотни миллиардов звезд и захватывающие разнообразие чудес.-В этом новом революционном документальном цикле профессор Брайан Кокс рассказывает эпическую историю нашей Вселенной, тем самым показывая, что мы её неотъемлемая часть.-Качество: BDRip
Формат: AVI
Видео кодек: XviD
Аудио кодек: AC3-Видео: XviD, 720x400, 25.000fps, 2 265 Kbps
Аудио 1: AC3, 48000 Hz, CBR 192 Kbps, 2 Channels
Аудио 2: AC3, 48000 Hz, CBR 192 Kbps, 2 Channels-

Список серий

01. Destiny / Cудьба
02. Stardust / Звездная пыль
03. Falling / Падение
04. Messengers / Посланники

Скриншоты



MI

E:\Video\Документальные\Чудеса вселенной\BBC.Wonders.of.the.Universe.01.2011.avi
Format : AVI
Format/Info : Audio Video Interleave
File size : 1.10 GiB
Duration : 59mn 3s
Overall bit rate : 2 664 Kbps
Movie name : BBC: Чудеса Вселенной / Wonders of the Universe (2011) BDRip
Director : olger
Writing application : VirtualDubMod 1.5.10.2 (build 2542/release)
Copyright : hellywood.ru
Comment : Blu-Ray Disk (1080i)
Video
ID : 0
Format : MPEG-4 Visual
Format profile : Advanced [email protected]
Format settings, BVOP : 1
Format settings, QPel : No
Format settings, GMC : No warppoints
Format settings, Matrix : Custom
Codec ID : XVID
Codec ID/Hint : XviD
Duration : 59mn 3s
Bit rate : 2 265 Kbps
Width : 720 pixels
Height : 400 pixels
Display aspect ratio : 16:9
Frame rate : 25.000 fps
Color space : YUV
Chroma subsampling : 4:2:0
Bit depth : 8 bits
Scan type : Progressive
Compression mode : Lossy
Bits/(Pixel*Frame) : 0.315
Stream size : 957 MiB (85%)
Writing library : XviD 64
Audio #1
ID : 1
Format : AC-3
Format/Info : Audio Coding 3
Mode extension : CM (complete main)
Format settings, Endianness : Big
Codec ID : 2000
Duration : 59mn 3s
Bit rate mode : Constant
Bit rate : 192 Kbps
Channel(s) : 2 channels
Channel positions : Front: L R
Sampling rate : 48.0 KHz
Bit depth : 16 bits
Compression mode : Lossy
Stream size : 81.1 MiB (7%)
Alignment : Split accross interleaves
Interleave, duration : 40 ms (1.00 video frame)
Interleave, preload duration : 500 ms
Audio #2
ID : 2
Format : AC-3
Format/Info : Audio Coding 3
Mode extension : CM (complete main)
Format settings, Endianness : Big
Codec ID : 2000
Duration : 59mn 3s
Bit rate mode : Constant
Bit rate : 192 Kbps
Channel(s) : 2 channels
Channel positions : Front: L R
Sampling rate : 48.0 KHz
Bit depth : 16 bits
Compression mode : Lossy
Stream size : 81.1 MiB (7%)
Alignment : Split accross interleaves
Interleave, duration : 40 ms (1.00 video frame)
Interleave, preload duration : 500 ms
-


Последний раз редактировалось: PupuseG (2012-12-21 14:27), всего редактировалось 1 раз

Создавать темы 05-Дек-2012 14:37

[Профиль]  [ЛС] 

victor0778

Стаж: 6 лет 6 месяцев

Сообщений: 1670

Симпатии: 142

PupuseG, Вот эталон оформления, всё красиво и понятно, спасибо

Создавать темы 05-Дек-2012 16:48

[Профиль]  [ЛС] 

PupuseG ®

Стаж: 4 года 10 месяцев

Сообщений: 514

Симпатии: 64

victor0778, стараемся.=)
Для всех: скорость отдачи будет прыгать. Буду давать полную скорость (пусть она не большая), когда будет канал боле-менее свободен от других релизов.
Если будет кто-то с провайдера ISTV, то он будет качать в первую очередь (путем фильтрации).

Создавать темы 05-Дек-2012 17:54

[Профиль]  [ЛС] 

Whitejin

Стаж: 6 лет 4 месяца

Сообщений: 175

Симпатии: 11

Спасибо PupuseG

Создавать темы 05-Дек-2012 19:50

[Профиль]  [ЛС] 

ASUS F5

Стаж: 5 лет 3 месяца

Сообщений: 58

Симпатии: 3

дайте раздачу пожалуйста Народ )))

Создавать темы 26-Июл-2013 10:34

[Профиль]  [ЛС] 

Gannibal

Стаж: 6 лет 8 месяцев

Сообщений: 103

Симпатии: 18

2ая аудио дорожка английская?

Создавать темы 24-Дек-2013 18:50

[Профиль]  [ЛС] 
Показать сообщения:    
Ответить на тему

Текущее время: 20-Авг 11:04

Часовой пояс: UTC + 5



Вы не можете начинать темы
Вы не можете отвечать на сообщения
Вы не можете редактировать свои сообщения
Вы не можете удалять свои сообщения
Вы не можете голосовать в опросах
Вы не можете прикреплять файлы к сообщениям
Вы не можете скачивать файлы