Великий замысел по Стивену Хокингу / Stephen Hawking`s Grand Design [2011, Научно-популярный, IPTVRip]

Ответить на тему
 

PupuseG ®

Стаж: 4 года 11 месяцев

Сообщений: 514

Симпатии: 64

-Великий замысел по Стивену Хокингу / Stephen Hawking`s Grand Design

-Год выпуска: 2011
Страна: США
Жанр: Научно-популярный
Продолжительность: 1 серия - 00:43:44, 2 серия - 00:43:49, 3 серия - 00:43:36
Перевод: Профессиональный (одноголосый)-Описание: Всемирно известный специалист по космологии и физике Стивен Хокинг исследует самые популярные и спорные вопросы науки. Возможно ли путешествовать вперед и назад в четвертом измерении? Что дало толчок возникновения Вселенной: эволюция или религия? Что или кто стоит у истоков нашей Галактики? Есть ли у жизни смысл, и в чем цель существования человека?
От открытия гравитации до создания теории струн, любознательный исследователь находит закономерности и рассказывает о принципах организации космоса и окружающей нас реальности.-Качество: IPTVRip
Формат: AVI
Видео/аудио кодек:
1 серия - DivX5 720*472, 1215 kbps, 25 fps /ac3 2ch 128 kbps
2 серия - DivX5 720*472, 982 kbps, 25 fps /mp3 2ch 128 kbps
3 серия - DivX5 720*472, 1012 kbps, 25 fps /mp3 2ch 128kbps-

Список серий

1 серия: Смысл жизни (The Meaning of Life)
2 серия: Ключ к космосу (The Key to the Cosmos)
3 серия: Создал ли Бог Вселенную? (Did God Create the Universe?)

Скриншоты

MI

1 серия

General
Complete name : D:\Video\Документальные\Великий замысел по Стивену Хокингу\Stephen.Hawkings.Grand.Design.01.avi
Format : AVI
Format/Info : Audio Video Interleave
File size : 424 MiB
Duration : 43mn 49s
Overall bit rate : 1 353 Kbps
Writing library : VirtualDub-MPEG2 build 23726/release
Video
ID : 0
Format : MPEG-4 Visual
Format settings, BVOP : 1
Format settings, QPel : No
Format settings, GMC : No warppoints
Format settings, Matrix : Default (H.263)
Muxing mode : Packed bitstream
Codec ID : DX50
Codec ID/Hint : DivX 5
Duration : 43mn 49s
Bit rate : 1 215 Kbps
Width : 720 pixels
Height : 472 pixels
Display aspect ratio : 2.2:1
Frame rate : 25.000 fps
Color space : YUV
Chroma subsampling : 4:2:0
Bit depth : 8 bits
Scan type : Progressive
Compression mode : Lossy
Bits/(Pixel*Frame) : 0.143
Stream size : 381 MiB (90%)
Writing library : DivX 6.8.5 (UTC 2009-08-20)
Audio
ID : 1
Format : MPEG Audio
Format version : Version 1
Format profile : Layer 3
Mode : Joint stereo
Mode extension : MS Stereo
Codec ID : 55
Codec ID/Hint : MP3
Duration : 43mn 49s
Bit rate mode : Constant
Bit rate : 128 Kbps
Channel(s) : 2 channels
Sampling rate : 48.0 KHz
Compression mode : Lossy
Stream size : 40.1 MiB (9%)
Alignment : Split accross interleaves
Interleave, duration : 40 ms (1.00 video frame)
Interleave, preload duration : 500 ms

2 серия

General
Complete name : D:\Video\Документальные\Великий замысел по Стивену Хокингу\Stephen.Hawkings.Grand.Design.02.avi
Format : AVI
Format/Info : Audio Video Interleave
File size : 349 MiB
Duration : 43mn 36s
Overall bit rate : 1 120 Kbps
Writing library : VirtualDub-MPEG2 build 23726/release
Video
ID : 0
Format : MPEG-4 Visual
Format settings, BVOP : 1
Format settings, QPel : No
Format settings, GMC : No warppoints
Format settings, Matrix : Default (H.263)
Muxing mode : Packed bitstream
Codec ID : DX50
Codec ID/Hint : DivX 5
Duration : 43mn 36s
Bit rate : 982 Kbps
Width : 720 pixels
Height : 472 pixels
Display aspect ratio : 2.2:1
Frame rate : 25.000 fps
Color space : YUV
Chroma subsampling : 4:2:0
Bit depth : 8 bits
Scan type : Progressive
Compression mode : Lossy
Bits/(Pixel*Frame) : 0.116
Stream size : 306 MiB (88%)
Writing library : DivX 6.8.5 (UTC 2009-08-20)
Audio
ID : 1
Format : MPEG Audio
Format version : Version 1
Format profile : Layer 3
Mode : Joint stereo
Codec ID : 55
Codec ID/Hint : MP3
Duration : 43mn 36s
Bit rate mode : Constant
Bit rate : 128 Kbps
Channel(s) : 2 channels
Sampling rate : 48.0 KHz
Compression mode : Lossy
Stream size : 39.9 MiB (11%)
Alignment : Split accross interleaves
Interleave, duration : 40 ms (1.00 video frame)
Interleave, preload duration : 500 ms

2 серия

General
Complete name : D:\Video\Документальные\Великий замысел по Стивену Хокингу\Stephen.Hawkings.Grand.Design.03.avi
Format : AVI
Format/Info : Audio Video Interleave
File size : 360 MiB
Duration : 43mn 44s
Overall bit rate : 1 150 Kbps
Writing library : VirtualDub-MPEG2 build 23726/release
Video
ID : 0
Format : MPEG-4 Visual
Format settings, BVOP : 1
Format settings, QPel : No
Format settings, GMC : No warppoints
Format settings, Matrix : Default (H.263)
Muxing mode : Packed bitstream
Codec ID : DX50
Codec ID/Hint : DivX 5
Duration : 43mn 44s
Bit rate : 1 012 Kbps
Width : 720 pixels
Height : 472 pixels
Display aspect ratio : 2.2:1
Frame rate : 25.000 fps
Color space : YUV
Chroma subsampling : 4:2:0
Bit depth : 8 bits
Scan type : Progressive
Compression mode : Lossy
Bits/(Pixel*Frame) : 0.119
Stream size : 317 MiB (88%)
Writing library : DivX 6.8.5 (UTC 2009-08-20)
Audio
ID : 1
Format : MPEG Audio
Format version : Version 1
Format profile : Layer 3
Mode : Joint stereo
Codec ID : 55
Codec ID/Hint : MP3
Duration : 43mn 44s
Bit rate mode : Constant
Bit rate : 128 Kbps
Channel(s) : 2 channels
Sampling rate : 48.0 KHz
Compression mode : Lossy
Stream size : 40.1 MiB (11%)
Alignment : Split accross interleaves
Interleave, duration : 40 ms (1.00 video frame)
Interleave, preload duration : 500 ms
-

Создавать темы 06-Дек-2012 02:43

[Профиль]  [ЛС] 

maestro25

Стаж: 5 лет 8 месяцев

Сообщений: 29

Симпатии: 2

Скорость под нажмите ребята!!!

Создавать темы 03-Фев-2013 17:03

[Профиль]  [ЛС] 

nightingale99

Стаж: 6 лет 3 месяца

Сообщений: 13

оригинальной дорожки нет???

Создавать темы 03-Фев-2013 18:21

[Профиль]  [ЛС] 

PupuseG ®

Стаж: 4 года 11 месяцев

Сообщений: 514

Симпатии: 64

Оригинальной дорожки нет.

Создавать темы 03-Фев-2013 21:31

[Профиль]  [ЛС] 

cona

Стаж: 5 лет 3 месяца

Сообщений: 11

а еще серии буду?

Создавать темы 10-Мар-2013 10:56

[Профиль]  [ЛС] 

PupuseG ®

Стаж: 4 года 11 месяцев

Сообщений: 514

Симпатии: 64

cona, не известно.

Создавать темы 10-Мар-2013 17:39

[Профиль]  [ЛС] 

boy86

Стаж: 4 года 7 месяцев

Сообщений: 26

Симпатии: 2

дайте скорости...

Создавать темы 10-Апр-2013 20:05

[Профиль]  [ЛС] 

D0wnl0ader

Стаж: 2 года 5 месяцев

Сообщений: 14

Симпатии: 12

Скорости, люди!

Создавать темы 04-Апр-2015 18:45

[Профиль]  [ЛС] 
Показать сообщения:    
Ответить на тему

Текущее время: 22-Сен 09:27

Часовой пояс: UTC + 5



Вы не можете начинать темы
Вы не можете отвечать на сообщения
Вы не можете редактировать свои сообщения
Вы не можете удалять свои сообщения
Вы не можете голосовать в опросах
Вы не можете прикреплять файлы к сообщениям
Вы не можете скачивать файлы