Наруто Ураганные хроники 292 / Naruto Shippuden 292 (Датэ Хаято) [2012 г., Приключения, Комедия, боевые, искусства, сёнэн HDTVRip ] [720р]

Ответить на тему
 

Wirus ®

Стаж: 5 лет 1 месяц

Сообщений: 63

Симпатии: 1

Наруто Ураганные хроники 292 / Naruto Shippuden 292
Год выпуска: 2012
Страна: Япония
Жанр: Приключения, Комедия, боевые, искусства, сёнэн
Продолжительность: 23:10
Перевод: Любительский (одноголосый)
Режиссер: Датэ Хаято
В ролях: В ролях: Накамура Тиэ / 中村千絵 — Сакура Харуно
Такэучи Дзюнко / 竹内順子 — Наруто Узумаки
Сугияма Нориаки / 杉山紀彰 — Саске Учиха
Исида Акира / 石田彰 — Гаара
Иноуэ Кадзухико / 井上和彦 — Какаши Хатаке
Кудзира / くじら — Орочимару
Канна Нобутоси / 神奈延年 — Кабуто Якуси
Кацуки Масако / 勝生真沙子 — Цунадэ
Масукава Ёити / 増川洋一 — Рок Ли
Мидзуки Нана / 水樹奈々 — Хината Хьюга
Морикубо Сётаро / 森久保祥太郎 — Шикамару Нара
Оцука Хотю / 大塚芳忠 — Джирайя
Сибата Хидэкацу / 柴田秀勝 — Третий Хокаге
Исикава Хидэо / 石川英郎 — Итачи Учиха
Тотика Койти / 遠近孝一 — Нейджи Хьюга
Описание: Описание: Второе пришествие популярного аниме-сериала «Наруто».
Это аниме покроет вторую часть сюжетной линии манги, которая берёт своё начало два года спустя, после событий в конце памятной арки о попытки вернуть Саске в деревню Скрытого Листа (серии 107-135).
История вращается в основном вокруг новых приключений Узумаки Наруто, Харуно Сакуры и их поиска Учиха Саске после того как тот покинул родную деревню чтобы обрести силу у Орочимару. Сюжет также покажет большую ативность, чем прежде Акатсуки в продвижении их плана по захвату всех «хвостатых» монстров
Формат: MPEG
Видео кодек: MPEG 2 LVD
Аудио кодек: MPEG Audio
Видео: MPEG4 Video (H264) 1280x720 23.962 fps 2 032 Kbps
Аудио: MPEG Audio MP3 AAC 44100Hz stereo 256 Kbps

Видео

Format : Matroska
Format version : Version 2
File size : 337 MiB
Duration : 23mn 9s
Overall bit rate : 2 032 Kbps
Encoded date : UTC 2012-12-06 18:49:24
Writing application : mkvmerge v5.4.0 ('Piper') built on Mar 10 2012 13:34:39
Writing library : libebml v1.2.3 + libmatroska v1.3.0
Attachment : Yes
Video #1
ID : 1
Format : AVC
Format/Info : Advanced Video Codec
Format profile : [email protected]
Format settings, CABAC : Yes
Format settings, ReFrames : 6 frames
Muxing mode : Header stripping
Codec ID : V_MPEG4/ISO/AVC
Duration : 23mn 9s
Bit rate : 1 776 Kbps
Width : 1 280 pixels
Height : 720 pixels
Display aspect ratio : 16:9
Frame rate mode : Constant
Frame rate : 23.962 fps
Original frame rate : 23.976 fps
Color space : YUV
Chroma subsampling : 4:2:0
Bit depth : 8 bits
Scan type : Progressive
Bits/(Pixel*Frame) : 0.080
Stream size : 288 MiB (85%)
Writing library : x264 core 120 r2120 0c7dab9
Audio #2
ID : 2
Format : MPEG Audio
Format version : Version 1
Format profile : Layer 3
Muxing mode : Header stripping
Codec ID : A_MPEG/L3
Codec ID/Hint : MP3
Duration : 23mn 9s
Bit rate mode : Constant
Bit rate : 256 Kbps
Channel(s) : 2 channels
Sampling rate : 44.1 KHz
Compression mode : Lossy
Delay relative to video : -83ms
Stream size : 42.4 MiB (13%)
Default : Yes
Forced : No

Скриншоты



Последний раз редактировалось: Wirus (2012-12-24 16:07), всего редактировалось 8 раз(а)

Создавать темы 10-Дек-2012 08:12

[Профиль]  [ЛС] 

nusrat76

Стаж: 5 лет

Сообщений: 3

дайте скорость

Создавать темы 10-Дек-2012 11:30

[Профиль]  [ЛС] 

derevo

Стаж: 4 года 11 месяцев

Сообщений: 4

на раздачу ставь!

Создавать темы 11-Дек-2012 00:11

[Профиль]  [ЛС] 

Актам Денмухаммадиев

Стаж: 4 года 7 месяцев

Сообщений: 113

МОЖНО СКОРОСТИ!!!!! bi bi

Создавать темы 26-Апр-2013 20:55

[Профиль]  [ЛС] 
Показать сообщения:    
Ответить на тему

Текущее время: 22-Окт 09:36

Часовой пояс: UTC + 5



Вы не можете начинать темы
Вы не можете отвечать на сообщения
Вы не можете редактировать свои сообщения
Вы не можете удалять свои сообщения
Вы не можете голосовать в опросах
Вы не можете прикреплять файлы к сообщениям
Вы не можете скачивать файлы