Отель Желание / Hotel Desire (Сергей Мойя) [2011, короткометражка, драма, мелодрама, ..., DVDRip]

Ответить на тему
 

jaska-3d ®

Стаж: 5 лет 8 месяцев

Сообщений: 250

Симпатии: 25

Отель Желание / Hotel Desire--
Год выпуска: 2011
Страна: Германия
Жанр: короткометражка, драма, мелодрама, ...
Продолжительность: 00:39:09
Перевод: Любительский (одноголосый закадровый)-Режиссер: Сергей Мойя
Сценарий: Сергей Мойя
Продюсер: Julia Lischinski, Саша Швингел, Christopher Zwickler
Оператор: Армин Френзен
Композитор: Стефан Мария Шнайдер
Художник: Simon Topfer, Лиина Зиммерманн
Монтаж: Beneditk Hugendubel-В ролях: Сарализа Фольм / Saralisa Volm (Antonia), Клеменс Шик / Clemens Schick (Julius Pass), Ян Грегор Кремп / Jan Gregor Kremp (Marcel), Херберт Кнауп / Herbert Knaup (Hoteldirektor), Фредерик Лау / Frederick Lau (Doorman), Полина Рожински / Palina Rojinski (Julia), Тристан Вин Пюттер / Trystan Wyn Puetter (Rezeptionist), Ханс-Уве Бауэр / Hans-Uwe Bauer -Описание: Антония одинокая мать ведёт монотонный образ жизни, имея напряженную работу в отеле Берлин, а всё свободное время посветила на воспитание восьмилетнего сына. Но в один рабочий день оказавшись в гостиной номера 823, сталкивается с постояльцем Юлием который слепой… и эта встреча заводит страстный секс…-Бюджет: €170 000
Премьера (мир): 7 декабря 2011
Рейтинг MPAA: Лицам до 17 лет просмотр запрещен-- -- -Релиз группы: -Качество: DVDRip
Формат: AVI
Видео кодек: XviD
Аудио кодеk: MP3
Видео: 688x366 (1.880:1), 25.000 fps, XviD, 664 Kbps
Аудио: Аудио #1: MP3, 32.0 Kbps, 44.1 KHz, 2 ch

МедиаИнфо

General
Complete name                    : hotel_zhelanija_.avi
Format                           : AVI
Format/Info                      : Audio Video Interleave
File size                        : 224 MiB
Duration                         : 39mn 9s
Overall bit rate                 : 801 Kbps
Writing application              : VirtualDubMod 1.5.10.2 (build 2540/release)
Writing library                  : VirtualDubMod build 2540/release
Video
ID                               : 0
Format                           : MPEG-4 Visual
Format profile                   : Advanced [email protected]
Format settings, BVOP            : Yes
Format settings, QPel            : No
Format settings, GMC             : No warppoints
Format settings, Matrix          : Default (H.263)
Muxing mode                      : Packed bitstream
Codec ID                         : XVID
Codec ID/Hint                    : XviD
Duration                         : 39mn 9s
Bit rate                         : 664 Kbps
Width                            : 688 pixels
Height                           : 366 pixels
Display aspect ratio             : 1.880
Frame rate                       : 25.000 fps
Color space                      : YUV
Chroma subsampling               : 4:2:0
Bit depth                        : 8 bits
Scan type                        : Progressive
Bits/(Pixel*Frame)               : 0.105
Stream size                      : 186 MiB (83%)
Writing library                  : XviD 64
Audio
ID                               : 1
Format                           : MPEG Audio
Format version                   : Version 1
Format profile                   : Layer 3
Mode                             : Joint stereo
Mode extension                   : MS Stereo
Codec ID                         : 55
Codec ID/Hint                    : MP3
Duration                         : 39mn 9s
Bit rate mode                    : Constant
Bit rate                         : 32.0 Kbps
Channel(s)                       : 2 channels
Sampling rate                    : 44.1 KHz
Stream size                      : 35.9 MiB (16%)
Alignment                        : Split accross interleaves
Interleave, duration             : 40 ms (1.00 video frame)
Interleave, preload duration     : 500 ms
Writing library                  : LAME3.98.2

Скриншоты





Доп.Постер



Последний раз редактировалось: jaska-3d (2012-12-10 14:04), всего редактировалось 3 раз(а)

Создавать темы 10-Дек-2012 13:54

[Профиль]  [ЛС] 

jaska-3d ®

Стаж: 5 лет 8 месяцев

Сообщений: 250

Симпатии: 25

--Раздаю с 09:00 утра !-- te pc tf


Последний раз редактировалось: jaska-3d (2012-12-11 07:28), всего редактировалось 1 раз

Создавать темы 10-Дек-2012 13:56

[Профиль]  [ЛС] 

jaska-3d ®

Стаж: 5 лет 8 месяцев

Сообщений: 250

Симпатии: 25

tx :of:

Создавать темы 10-Дек-2012 14:05

[Профиль]  [ЛС] 

Sinema_uz

Стаж: 6 лет 7 месяцев

Сообщений: 303

Симпатии: 4

почему не раздаем??????????

Создавать темы 10-Дек-2012 23:08

[Профиль]  [ЛС] 

Sinema_uz

Стаж: 6 лет 7 месяцев

Сообщений: 303

Симпатии: 4

помоему звук вперди идет

Создавать темы 13-Дек-2012 02:34

[Профиль]  [ЛС] 

shahz

Стаж: 5 лет 5 месяцев

Сообщений: 192

Симпатии: 9

блин отвратительное впечатление. Фильм сам норм, но когда звук отстает от кадра на 1 минуту, то кажется что надо запоминать кадры для будущего звука...

Создавать темы 02-Фев-2013 13:33

[Профиль]  [ЛС] 

Shams

Стаж: 5 лет 6 месяцев

Сообщений: 2

Супер фильм!

Создавать темы 06-Июл-2013 21:03

[Профиль]  [ЛС] 

Asatulla

Стаж: 3 года 8 месяцев

Сообщений: 22

Симпатии: 1

Почему не раздаете друзья?? дайте скачаю!!!

Создавать темы 22-Дек-2013 21:05

[Профиль]  [ЛС] 
Показать сообщения:    
Ответить на тему

Текущее время: 19-Авг 02:50

Часовой пояс: UTC + 5



Вы не можете начинать темы
Вы не можете отвечать на сообщения
Вы не можете редактировать свои сообщения
Вы не можете удалять свои сообщения
Вы не можете голосовать в опросах
Вы не можете прикреплять файлы к сообщениям
Вы не можете скачивать файлы