Соловей-Разбойник (Егор Баранов) [2012 г., боевик, комедия, криминал, BDRip 720]

Ответить на тему
 

zerg ®

Стаж: 5 лет 7 месяцев

Сообщений: 96

Симпатии: 7


Соловей-Разбойник

«Здесь граблю только я»
--
Соловей-Разбойник
2012 Россия
боевик, комедия, криминал
Егор Баранов
01:31:39
Иван Охлобыстин, Евгений Стычкин, Оксана Фандера, Игорь Жижикин, Сергей Бадюк,
Александр Стриженов,Павел Прилучный, Мария Голубкина, Александр Сухинин, Михаил Горевой

История о дерзком романтике Соловьёве Севастьяне Григорьевиче, cтупившем по зову крови на лихую стезю русского разбоя. И пока спецслужбы во главе с секретным агентом Н7 пытаются ликвидировать банду Соловья-Разбойника, он, со свойственным ему драйвом и озорством, восстанавливает в родном краю справедливость. Но рано или поздно любой «сказке» приходит конец…
Не требуется - Лицензия!-- MKV BDRip[720p] H.264 1280x544 | 5 370 kbps | 23.976 fps
DTS Русский | 1510 kbps | 5.1 ch | 48.0 KHz -- --

Медиа-Инфо

Solovej.Razbojnik.2012.O.BDRip.720p.mkv
Format : Matroska
Format version : Version 2
File size : 4.49 GiB
Duration : 1h 31mn
Overall bit rate : 7 020 Kbps
Encoded date : UTC 2012-12-07 16:55:47
Writing application : mkvmerge v5.2.0 ('I can't explain') built on Dec 18 2011 18:12:03
Writing library : libebml v1.2.3 + libmatroska v1.3.0
Video
ID : 1
Format : AVC
Format/Info : Advanced Video Codec
Format profile : [email protected]
Format settings, CABAC : Yes
Format settings, ReFrames : 5 frames
Codec ID : V_MPEG4/ISO/AVC
Duration : 1h 31mn
Bit rate : 5 370 Kbps
Width : 1 280 pixels
Height : 544 pixels
Display aspect ratio : 2.35:1
Frame rate : 24.000 fps
Color space : YUV
Chroma subsampling : 4:2:0
Bit depth : 8 bits
Scan type : Progressive
Bits/(Pixel*Frame) : 0.321
Stream size : 3.44 GiB (77%)
Title : Solovej-Razbojnik (2012)
Writing library : x264 core 125 r2200 999b753
Encoding settings : cabac=1 / ref=5 / deblock=1:-1:-1 / analyse=0x3:0x113 / me=hex / subme=7 / psy=1 / psy_rd=1.00:0.00 / mixed_ref=1 / me_range=16 / chroma_me=1 / trellis=1 / 8x8dct=1 / cqm=0 / deadzone=21,11 / fast_pskip=0 / chroma_qp_offset=-2 / threads=12 / lookahead_threads=2 / sliced_threads=0 / nr=0 / decimate=1 / interlaced=0 / bluray_compat=0 / constrained_intra=0 / bframes=3 / b_pyramid=2 / b_adapt=1 / b_bias=0 / direct=3 / weightb=1 / open_gop=0 / weightp=2 / keyint=240 / keyint_min=24 / scenecut=40 / intra_refresh=0 / rc=crf / mbtree=0 / crf=17.5 / qcomp=0.60 / qpmin=0 / qpmax=69 / qpstep=4 / ip_ratio=1.40 / pb_ratio=1.30 / aq=1:1.00
Language : Russian
Default : Yes
Forced : Yes
Audio
ID : 2
Format : DTS
Format/Info : Digital Theater Systems
Codec ID : A_DTS
Duration : 1h 31mn
Bit rate mode : Constant
Bit rate : 1 510 Kbps
Channel(s) : 6 channels
Channel positions : Front: L C R, Side: L R, LFE
Sampling rate : 48.0 KHz
Bit depth : 24 bits
Compression mode : Lossy
Stream size : 990 MiB (22%)
Title : DTS 5.1 @ 1536 kbps
Language : Russian
Default : Yes
Forced : Yes

Создавать темы 12-Дек-2012 16:08

[Профиль]  [ЛС] 

apasov

Стаж: 5 лет 9 месяцев

Сообщений: 46

пережмите кто-нить на 700 или 1400

Создавать темы 12-Дек-2012 16:41

[Профиль]  [ЛС] 

zerg ®

Стаж: 5 лет 7 месяцев

Сообщений: 96

Симпатии: 7

apasov, а поиск не? Соловей-Разбойник / (Егор Баранов) [2012, боевик, комедия, приключения, BDRip]Лицензия

Создавать темы 12-Дек-2012 16:56

[Профиль]  [ЛС] 

2222

Стаж: 5 лет 3 месяца

Сообщений: 193

Симпатии: 3

Помогу с раздачей

_________________
Подпись отключена за нарушение правил форума

Создавать темы 18-Апр-2013 18:25

[Профиль]  [ЛС] 

ALL TAIR

Стаж: 5 лет 8 месяцев

Сообщений: 141

Симпатии: 1

скоростиии плиссс

Создавать темы 08-Окт-2013 21:59

[Профиль]  [ЛС] 
Показать сообщения:    
Ответить на тему

Текущее время: 20-Окт 10:13

Часовой пояс: UTC + 5



Вы не можете начинать темы
Вы не можете отвечать на сообщения
Вы не можете редактировать свои сообщения
Вы не можете удалять свои сообщения
Вы не можете голосовать в опросах
Вы не можете прикреплять файлы к сообщениям
Вы не можете скачивать файлы