[#178] Собачий полдень / Dog Day Afternoon (Сидни Люмет) [1975 г., триллер, драма, криминал, DVDRip]

Ответить на тему
 

rush87 ®

Стаж: 5 лет 7 месяцев

Сообщений: 10

Симпатии: 4

--Собачий полдень / Dog Day Afternoon- Год выпуска: 1975
Страна: США
Жанр: триллер, драма, криминал
Продолжительность: 02:04:31
Перевод: Профессиональный (полное дублирование)
Режиссер: Сидни Люмет
В ролях: Аль Пачино, Пенелопа Аллен, Салли Бойяр, Джон Казале, Бела Гаррик, Кэрол Кэйн, Сандра Кэзан, Марсия Жан Кертц, Эми Левитт, Джон Марриотт-Описание: В жаркий бруклинский полдень двое воодушевленных неудачников решают ограбить банк. Санни — главарь, Сэл — помощник, а провал — результат. Потому что полиция, толпы зевак, телекамеры и даже разносчик пиццы прибыли на место происшествия. «Хорошо спланированное» ограбление превращается в цирк.
Благодаря блестящей актерской игре (около 60 процентов картины, по признанию режиссера, основано на актерских импровизациях) и замечательной работе постановщика фильм стал крупнейшим событием кинематографа своего времени. На первый взгляд, это всего лишь хорошо сконструированный детектив, но на самом деле "Собачий полдень" - великолепная драма с серьезным философским подтекстом, притча об одной из вечных проблем – о людях, не нашедших себе места в этом мире, оказавшихся в плену обстоятельств и условностей.
-

Награды и номинации

  • 1975 — премия Национального совета кинокритиков США лучшему актёру второго плана (Чарльз Дёрнинг)
  • 1975 — «Серебряная раковина лучшему актёру» — приз кинофестиваля в Сан-Себастьяне (Аль Пачино)
  • 1976 — премия «Оскар»за лучший оригинальный сценарий (Фрэнк Пирсон), а также 5 номинаций: лучший фильм (Мартин Брегман, Мартин Элфанд), лучший режиссёр (Сидни Люмет), лучший актёр (Аль Пачино), лучший актёр второго плана (Крис Сарандон), лучший монтаж (Диди Аллен)
  • 1976 — две премии BAFTA лучшему актёру (Аль Пачино) и за лучший монтаж (Диди Аллен), а также 4 номинации: лучший фильм, лучший режиссёр (Сидни Люмет), лучший сценарий (Фрэнк Пирсон), лучший саундтрек
  • 1976 — специальная премия «Давид ди Донателло» за продюсирование (Мартин Брегман, Мартин Элфанд)
  • 1976 — премия Гильдии сценаристов США за лучший оригинальный сценарий (Фрэнк Пирсон)
  • 1976 — номинация на премию Гильдии режиссёров США (Сидни Люмет)
  • 1976 — 7 номинаций на премию «Золотой глобус»: лучший фильм — драма, лучший режиссёр (Сидни Люмет), лучший сценарий (Фрэнк Пирсон), лучший актёр — драма (Аль Пачино), лучший актёр второго плана (Чарльз Дёрнинг и Джон Казале), лучший актёрский дебют (Крис Сарандон)

Доп. инфо

Доп. информация: Сюжет фильма основан на статье П. Ф. Клуджа и Томаса Мура «Ребята в банке» (англ. The Boys in the Bank), о схожем ограблении Бруклинского банка Джоном Вочтовицом и Сальватором Натурилом, 22 августа 1972 года. Сама статья была опубликована в журнале Life в том же году[1].
В целом фильм получил положительные оценки после премьеры в сентябре 1975 года, некоторые критики заметили отсылки к анти-истеблишменту. «Собачий полдень» номинировался на ряд премий Академии кинематографических искусств, а также на премии «Золотой глобус», но выиграл всего одну премию «Оскар» за лучший оригинальный сценарий.
Фильм поставлен по реальному ограблению, произошедшему 22 августа 1972 года: двое преступников врываются в банк и пытаются его ограбить, но денег в банке нет. Они не успевают уйти, и через несколько минут их окружают 250 полицейских, толпа зевак и телевизионщики.
Dog days пришли в английский от римлян. Те называли собачьими днями (dies caniculares) два самых жарких летних месяца — в честь созвездия Большого Пса (Canis Major), которое в это время года господствовало в небе (его альфа — Сириус, или «Собачья звезда» у римлян). Примерно в это же время собаки имеют тенденцию беситься от жары. Так что на русский название этого фильма можно было перевести как «Вечер жаркого дня». Ведь фильм не только и не столько о жаре, сколько о безысходной ситуации, в которую попадает герой. Жара только усиливает драматический эффект.
Действие фильма разворачивается жарким летом. Однако на съемках стоял жуткий холод. Актёры, участвовавшие в сценах за пределами банка, вынуждены были постоянно замораживать рты с помощью льда, чтобы не было видно их теплого дыхания.
Первоначально Сэла должен был сыграть 18-летний актёр; именно столько лет и было настоящему Сэлу (Сальваторе). Однако затем эта роль досталась Джону Казале.
Слоган фильма: «Ограбление банка должно было занять десять минут…».
В фильме совсем нет музыки, кроме начальной сцены, которая открывает фильм.

MI

General
Format : AVI
Format/Info : Audio Video Interleave
Format profile : OpenDML
File size : 2.19 GiB
Duration : 2h 4mn
Overall bit rate : 2 512 Kbps
Movie name : Собачий полдень / Dog Day Afternoon (1975)
Director : SENATOR (HDRip 720)
Writing application : VirtualDubMod 1.5.10.2 (build 2540/release)
Copyright : HQ-ViDEO (www.hq-video.ru)
Comment : 16.01.2009
Video
ID : 0
Format : MPEG-4 Visual
Format profile : Advanced [email protected]
Format settings, BVOP : 2
Format settings, QPel : No
Format settings, GMC : No warppoints
Format settings, Matrix : Default (MPEG)
Muxing mode : Packed bitstream
Codec ID : XVID
Codec ID/Hint : XviD
Duration : 2h 4mn
Bit rate : 1 919 Kbps
Width : 720 pixels
Height : 400 pixels
Display aspect ratio : 16:9
Frame rate : 23.976 fps
Color space : YUV
Chroma subsampling : 4:2:0
Bit depth : 8 bits
Scan type : Progressive
Compression mode : Lossy
Bits/(Pixel*Frame) : 0.278
Stream size : 1.67 GiB (76%)
Writing library : XviD 1.2.1 (UTC 2008-12-04)
Audio #1
ID : 1
Format : AC-3
Format/Info : Audio Coding 3
Mode extension : CM (complete main)
Codec ID : 2000
Duration : 2h 4mn
Bit rate mode : Constant
Bit rate : 192 Kbps
Channel(s) : 2 channels
Channel positions : Front: L R
Sampling rate : 48.0 KHz
Bit depth : 16 bits
Compression mode : Lossy
Delay relative to video : 400ms
Stream size : 171 MiB (8%)
Alignment : Split accross interleaves
Interleave, duration : 42 ms (1.00 video frame)
Audio #2
ID : 2
Format : AC-3
Format/Info : Audio Coding 3
Mode extension : CM (complete main)
Codec ID : 2000
Duration : 2h 4mn
Bit rate mode : Constant
Bit rate : 384 Kbps
Channel(s) : 6 channels
Channel positions : Front: L C R, Side: L R, LFE
Sampling rate : 48.0 KHz
Bit depth : 16 bits
Compression mode : Lossy
Stream size : 342 MiB (15%)
Alignment : Split accross interleaves
Interleave, duration : 42 ms (1.00 video frame)
Interleave, preload duration : 500 ms

Скриншоты



НЕ ЗАБЫВАЕМ ПРО СПАСИБО


Последний раз редактировалось: rush87 (2013-03-10 19:48), всего редактировалось 17 раз(а)

Создавать темы 22-Дек-2012 18:18

[Профиль]  [ЛС] 

barcamol

Стаж: 5 лет 10 месяцев

Сообщений: 29

Симпатии: 15

__


Последний раз редактировалось: barcamol (2013-07-17 13:28), всего редактировалось 1 раз

Создавать темы 22-Дек-2012 18:53

[Профиль]  [ЛС] 

nasri91

Стаж: 4 года 10 месяцев

Сообщений: 48

Симпатии: 1

не советую качать только время зря потратите! мягко говоря фильм редиска сосиска

Создавать темы 20-Апр-2013 22:08

[Профиль]  [ЛС] 

rush87 ®

Стаж: 5 лет 7 месяцев

Сообщений: 10

Симпатии: 4

nasri91,
не советую качать только время зря потратите! мягко говоря фильм редиска сосиска
Вы, наверное, не поняли сути данного фильма.
Думаю, 5 номинаций и премия «Оскар» за лучший оригинальный сценарий о чем-то говорят.

Создавать темы 21-Апр-2013 14:13

[Профиль]  [ЛС] 

aliyor-azizovich

Стаж: 4 года

Сообщений: 17

Симпатии: 12

Ради Аль Пачино стоит посмотреть.

Создавать темы 20-Янв-2014 13:42

[Профиль]  [ЛС] 
Показать сообщения:    
Ответить на тему

Текущее время: 24-Ноя 06:37

Часовой пояс: UTC + 5



Вы не можете начинать темы
Вы не можете отвечать на сообщения
Вы не можете редактировать свои сообщения
Вы не можете удалять свои сообщения
Вы не можете голосовать в опросах
Вы не можете прикреплять файлы к сообщениям
Вы не можете скачивать файлы