Watts Zap / Тур де Франс 2012 [2012 г., Велоспорт, SATRip]

Ответить на тему
 

silkway ®

Стаж: 6 лет 10 месяцев

Сообщений: 32

Симпатии: 14

Watts Zap / Тур де Франс 2012
Год выпуска: 2012
Вид спорта: Велоспорт
Продолжительность: 00:12:50
Комментарий: Не требуется
Описание: Что такое Watts Zap? Все самое курьезное, необычное и смешное в спорте! Watts - взгляните на спорт с улыбкой!
Качество: SATRip
Формат: MPEG
Видео кодек: H264
Аудио кодек: AAC
Видео: MPEG4 Video (H264) 1024x576 25fps 2128kbps
Аудио: AAC 44100Hz stereo 192kbps

Mediainfo

General
Complete name :watts_tdf_2012.mp4
Format : MP42
Codec ID : MP42
File size : 224 MiB
Duration : 12mn 50s
Overall bit rate mode : Variable
Overall bit rate : 2 443 Kbps
Encoded date : UTC 2012-07-20 18:01:22
Tagged date : UTC 2012-07-20 18:01:22
Video
ID : 1
Format : AVC
Format/Info : Advanced Video Codec
Format profile : [email protected]
Format settings, CABAC : Yes
Format settings, ReFrames : 2 frames
Codec ID : avc1
Codec ID/Info : Advanced Video Coding
Duration : 12mn 50s
Bit rate mode : Variable
Bit rate : 2 128 Kbps
Maximum bit rate : 2 450 Kbps
Width : 1 024 pixels
Height : 576 pixels
Display aspect ratio : 16:9
Frame rate mode : Constant
Frame rate : 25.000 fps
Color space : YUV
Chroma subsampling : 4:2:0
Bit depth : 8 bits
Scan type : Progressive
Bits/(Pixel*Frame) : 0.144
Stream size : 195 MiB (87%)
Encoded date : UTC 2012-07-20 18:01:22
Tagged date : UTC 2012-07-20 18:01:44
Audio
ID : 2
Format : AAC
Format/Info : Advanced Audio Codec
Format profile : LC
Codec ID : 40
Duration : 12mn 50s
Bit rate mode : Variable
Bit rate : 192 Kbps
Maximum bit rate : 198 Kbps
Channel(s) : 2 channels
Channel positions : Front: L R
Sampling rate : 44.1 KHz
Compression mode : Lossy
Stream size : 17.4 MiB (8%)
Encoded date : UTC 2012-07-20 18:01:22
Tagged date : UTC 2012-07-20 18:01:44

Скриншоты





Последний раз редактировалось: silkway (2013-01-09 20:38), всего редактировалось 3 раз(а)

Создавать темы 24-Дек-2012 22:44

[Профиль]  [ЛС] 
Показать сообщения:    
Ответить на тему

Текущее время: 21-Ноя 15:01

Часовой пояс: UTC + 5



Вы не можете начинать темы
Вы не можете отвечать на сообщения
Вы не можете редактировать свои сообщения
Вы не можете удалять свои сообщения
Вы не можете голосовать в опросах
Вы не можете прикреплять файлы к сообщениям
Вы не можете скачивать файлы