Суши гёл / Sushi Girl (Керн Сэкстон) [2012, триллер, криминал, DVDrip] [ЛИЦЕНЗИЯ]

Страницы :  1, 2  След.

Ответить на тему
 

ОЛОЛОШ ®

Стаж: 5 лет 2 месяца

Сообщений: 141

Симпатии: 3

- «20-летию «БЕШЕНЫХ ПСОВ» Квентина Тарантино посвящается»-
Год выпуска: 2012
Страны: США
Жанры: триллер, криминал
Продолжительность: 01:39:28
Перевод: Профессиональный (дублированный) [Лицензия]--Режиссер: Керн Сэкстон
Сценарий: Дестин Пфафф, Керн Сэкстон
Продюсер: Нил Аллен Фишер, Дестин Пфафф, Керн Сэкстон
Оператор: Аарон Майстер
Композитор: Фридрих Майерс
Художник: Кайл Канненберг, Мелиса Майерс, Дайна Деворре
Монтаж: Керн Сэкстон-В ролях:
             Джеймс Дювал / James Duval (Francis), Ноа Хэтэуэй / Noah Hathaway (Fish), Энди МакКензи / Andy Mackenzie (Max), Тони Тодд / Tony Todd (Duke), Марк Хэмилл / Mark Hamill (Crow), Сонни Чиба / Sonny Chiba (Sushi Chef), Давид Дастмалчян / David Dastmalchian (Nelson), Джефф Фэйи / Jeff Fahey (Morris), Кортни Палм / Cortney Palm (Sushi Girl), Дэнни Трехо / Danny Trejo (Schlomo), Сайрус Александр / Cyrus Alexander (Martin), Майкл Бин / Michael Biehn (Mike), Дестин Пфафф / Destin Pfaff (Jude), Дэвид Рейнольдс / David Reynolds (Henchman), Тед Страйкер / Stryker (Ramone)-Описание:
Налетчик по кличке Фиш провел шесть лет в тюрьме. Все эти шесть лет он молчал о совершенном грабеже и своих четырех подельниках. У ворот тюрьмы, после освобождения, его встречает машина и отвозит в место, где собираются все его бывшие друзья, участники громкого ограбления. На столе, в виде угощения, лежит молодая, обнаженная и красивая девушка с разнообразными видами суши на теле. Девушка кажется полностью безмолвной, обученной молчать и не реагировать на то, что происходит вокруг. Даже если будет опасно. Матерые преступники начинают выяснять меж собой, куда после ограбления пропали бриллианты на несколько миллионов долларов.-Бюджет: $5 000 000
Премьера (мир): 21 июля 2012, ...
Премьера (РФ): 29 ноября 2012, «АКМ»
Релиз на DVD: 18 декабря 2012, «Флагман-Трейд», ...
Релиз на Blu-Ray: 18 декабря 2012, «Флагман-Трейд», ...
Рейтинг MPAA: Лицам до 17 лет обязательно присутствие взрослого-

МедиаИнфо

General
Complete name : Sushi.girl.2012.D.DVDRip_700.avi
Format : AVI
Format/Info : Audio Video Interleave
File size : 701 MiB
Duration : 1h 39mn
Overall bit rate : 986 Kbps
Writing application : VirtualDubMod 1.5.10.3 | www.virtualdub-fr.org || (build 2550/release)
Writing library : VirtualDubMod build 2550/release
Video
ID : 0
Format : MPEG-4 Visual
Format profile : Advanced [email protected]
Format settings, BVOP : Yes
Format settings, QPel : No
Format settings, GMC : No warppoints
Format settings, Matrix : Default (MPEG)
Muxing mode : Packed bitstream
Codec ID : XVID
Codec ID/Hint : XviD
Duration : 1h 39mn
Bit rate : 848 Kbps
Width : 640 pixels
Height : 272 pixels
Display aspect ratio : 2.35:1
Frame rate : 25.000 fps
Color space : YUV
Chroma subsampling : 4:2:0
Bit depth : 8 bits
Scan type : Progressive
Bits/(Pixel*Frame) : 0.195
Stream size : 603 MiB (86%)
Writing library : XviD 73
Audio
ID : 1
Format : MPEG Audio
Format version : Version 1
Format profile : Layer 3
Codec ID : 55
Codec ID/Hint : MP3
Duration : 1h 39mn
Bit rate mode : Constant
Bit rate : 128 Kbps
Channel(s) : 2 channels
Sampling rate : 48.0 KHz
Stream size : 91.1 MiB (13%)
Alignment : Aligned on interleaves
Interleave, duration : 40 ms (1.00 video frame)
Interleave, preload duration : 504 ms
Writing library : LAME3.99r
Encoding settings : -m s -V 4 -q 2 -lowpass 17 -b 128
-Качество: DVDrip
Формат: AVI
Видео кодек: XviD
Аудио кодек: MP3
        Видео: 640x272 (2.35:1), 25.000 fps, XviD, 848 Kbps
        Аудио: MP3, 128 Kbps, 48.0 KHz, 2 ch

Знаете ли Вы, что...

★ Все сцены с Майклом Бином были отсняты в один день и бесплатно. Он сделал это из-за дружеских отношений с сопродюсером фильма Электрой Авеллан.

Скриншоты







Последний раз редактировалось: ОЛОЛОШ (2012-12-26 18:56), всего редактировалось 5 раз(а)

Создавать темы 26-Дек-2012 15:42

[Профиль]  [ЛС] 

Face

Стаж: 5 лет 5 месяцев

Сообщений: 48

Скриншоты поболше сделай

Создавать темы 26-Дек-2012 15:44

[Профиль]  [ЛС] 

ОЛОЛОШ ®

Стаж: 5 лет 2 месяца

Сообщений: 141

Симпатии: 3

Face, нажми на них сначала

Создавать темы 26-Дек-2012 15:48

[Профиль]  [ЛС] 

ОЛОЛОШ ®

Стаж: 5 лет 2 месяца

Сообщений: 141

Симпатии: 3

Проверяйте ;)

Создавать темы 26-Дек-2012 16:28

[Профиль]  [ЛС] 

victor0778

Стаж: 6 лет 9 месяцев

Сообщений: 1670

Симпатии: 142

ОЛОЛОШ, Качество???

Создавать темы 26-Дек-2012 18:40

[Профиль]  [ЛС] 

drabadan

Симпатии: 27

оч хорошийфильм действительно напоминает бешеных псов

Создавать темы 28-Дек-2012 08:57

 

жавохир

Стаж: 7 лет 3 месяца

Сообщений: 20

Симпатии: 4

ОЛОЛОШ, Качество???
Действительно странно, написано лицензия но размер что то маловат для этого

Создавать темы 29-Дек-2012 22:52

[Профиль]  [ЛС] 

victor0778

Стаж: 6 лет 9 месяцев

Сообщений: 1670

Симпатии: 142

Действительно странно, написано лицензия но размер что то маловат для этого
Вы тех данные релиза смотрите

Создавать темы 30-Дек-2012 00:12

[Профиль]  [ЛС] 

greezlee

Стаж: 6 лет 10 месяцев

Сообщений: 52

Симпатии: 1

Все отлично. Спасибо за фильм, за размер, за качество.

Создавать темы 04-Янв-2013 04:30

[Профиль]  [ЛС] 

mogilshik

Стаж: 6 лет 10 месяцев

Сообщений: 15

Отличный фильм

Создавать темы 12-Янв-2013 14:06

[Профиль]  [ЛС] 

ОЛОЛОШ ®

Стаж: 5 лет 2 месяца

Сообщений: 141

Симпатии: 3

mogilshik, ага =)

Создавать темы 13-Янв-2013 11:58

[Профиль]  [ЛС] 

Uzer5

Стаж: 6 лет 4 месяца

Сообщений: 76

Симпатии: 13

Не понравился фильм вообще. Сюжета 0. Только сцены кровавых пыток.

_________________
Подпись отключена за нарушение правил форума

Создавать темы 13-Янв-2013 12:25

[Профиль]  [ЛС] 

ОЛОЛОШ ®

Стаж: 5 лет 2 месяца

Сообщений: 141

Симпатии: 3

Uzer5, нууу кому как..

Создавать темы 14-Янв-2013 22:53

[Профиль]  [ЛС] 

Жасулан_89

Стаж: 5 лет 2 месяца

Сообщений: 70

Симпатии: 2

раздача будет или нет?

Создавать темы 20-Янв-2013 00:34

[Профиль]  [ЛС] 

Dr-bred

Стаж: 5 лет 8 месяцев

Сообщений: 15

КРУТО ЧУВАК... СПС ЗА ФИЛЬМ

Создавать темы 30-Янв-2013 18:34

[Профиль]  [ЛС] 
Показать сообщения:    
Ответить на тему

Текущее время: 24-Ноя 05:29

Часовой пояс: UTC + 5



Вы не можете начинать темы
Вы не можете отвечать на сообщения
Вы не можете редактировать свои сообщения
Вы не можете удалять свои сообщения
Вы не можете голосовать в опросах
Вы не можете прикреплять файлы к сообщениям
Вы не можете скачивать файлы