Познер. Людмила Улицкая (эфир 23.12.2012) (Информация и аналитика) [2012 г., TVRip]

Ответить на тему
 

silkway ®

Стаж: 6 лет 8 месяцев

Сообщений: 32

Симпатии: 14

Познер. Людмила Улицкая (эфир 23.12.2012)
Жанр: Информация и аналитика
Автор и ведущий: Владимир Познер
Год выпуска: 2012
Продолжительность: 01:01:44
Описание: "Новая программа будет содержать в себе интервью и ток-шоу, - рассказал В.Познер. - Первые три недели это будет интервью без аудитории с одним человеком, по одной или нескольким выпускам - экономическим, политическим, культурным, а на четвертой неделе - ток-шоу в чистом виде: гость и зрители в студии".
Владимир Познер будет задавать вопросы политикам, общественным деятелям, деятелям культуры, искусства, науки, спорта. Беседа может быть как привязана к актуальным событиям недели, так и не связана с последними событиями.
Сайт передачи: http://www.1tv.ru/pozner/
Сайт В.В. Познера: http://pozneronline.ru/o-sajte/
Качество: TVRip
Формат: MPEG
Видео кодек: H264
Аудио кодек: AAC
Видео: MPEG4 Video (H264) 640x360 25fps 650kbps
Аудио: AAC 48000Hz stereo 119kbps

Mediainfo

General
Complete name : C:\Downloads\pozner_20121223.mp4
Format : MPEG-4
Format profile : Base Media
Codec ID : isom
File size : 343 MiB
Duration : 1h 1mn
Overall bit rate : 776 Kbps
Writing application : Lavf53.4.0
Video
ID : 1
Format : AVC
Format/Info : Advanced Video Codec
Format profile : [email protected]
Format settings, CABAC : Yes
Format settings, ReFrames : 5 frames
Codec ID : avc1
Codec ID/Info : Advanced Video Coding
Duration : 1h 1mn
Bit rate mode : Variable
Bit rate : 650 Kbps
Width : 640 pixels
Height : 360 pixels
Display aspect ratio : 16:9
Frame rate mode : Constant
Frame rate : 25.000 fps
Color space : YUV
Chroma subsampling : 4:2:0
Bit depth : 8 bits
Scan type : Progressive
Bits/(Pixel*Frame) : 0.113
Stream size : 287 MiB (84%)
Writing library : x264 core 115
Encoding settings : cabac=1 / ref=5 / deblock=1:0:0 / analyse=0x3:0x133 / me=hex / subme=9 / psy=1 / psy_rd=1.00:0.00 / mixed_ref=1 / me_range=16 / chroma_me=1 / trellis=1 / 8x8dct=1 / cqm=0 / deadzone=21,11 / fast_pskip=1 / chroma_qp_offset=-2 / threads=36 / sliced_threads=0 / nr=0 / decimate=1 / interlaced=0 / bluray_compat=0 / constrained_intra=0 / bframes=3 / b_pyramid=2 / b_adapt=0 / b_bias=0 / direct=2 / weightb=1 / open_gop=0 / weightp=2 / keyint=25 / keyint_min=13 / scenecut=40 / intra_refresh=0 / rc_lookahead=25 / rc=2pass / mbtree=1 / bitrate=650 / ratetol=1.0 / qcomp=0.50 / qpmin=8 / qpmax=51 / qpstep=4 / cplxblur=20.0 / qblur=2.0 / ip_ratio=1.41 / aq=1:1.00
Audio
ID : 2
Format : AAC
Format/Info : Advanced Audio Codec
Format profile : LC
Codec ID : 40
Duration : 1h 1mn
Bit rate mode : Constant
Bit rate : 120 Kbps
Channel(s) : 2 channels
Channel positions : Front: L R
Sampling rate : 48.0 KHz
Compression mode : Lossy
Delay relative to video : 80ms
Stream size : 53.0 MiB (15%)

Скриншоты





Последний раз редактировалось: silkway (2012-12-27 20:08), всего редактировалось 1 раз

Создавать темы 27-Дек-2012 19:39

[Профиль]  [ЛС] 

Morphing

Стаж: 5 лет 2 месяца

Сообщений: 211

Симпатии: 37

Правильно оформил

Создавать темы 27-Дек-2012 19:53

[Профиль]  [ЛС] 

Imhoteb

Стаж: 5 лет

Сообщений: 22

Спасибо большое за релиз. Будем ждать новые выпуски, но, если есть возможность выложить некоторые предыдущие, будем очень благодарны.
А то на YouTube как-то накладно смотреть...

Создавать темы 27-Дек-2012 22:17

[Профиль]  [ЛС] 
Показать сообщения:    
Ответить на тему

Текущее время: 24-Сен 00:50

Часовой пояс: UTC + 5



Вы не можете начинать темы
Вы не можете отвечать на сообщения
Вы не можете редактировать свои сообщения
Вы не можете удалять свои сообщения
Вы не можете голосовать в опросах
Вы не можете прикреплять файлы к сообщениям
Вы не можете скачивать файлы