Сборник мультфильмов "Когда зажигаются ёлки" (часть 2) [1966-2011, Мультфильм, DVDRip/HDRip]

Ответить на тему
 

Amiga ®

Стаж: 5 лет 4 месяца

Сообщений: 55

Симпатии: 1

Сборник мультфильмов "Когда зажигаются ёлки"
Год выхода: 1966-2011
Страна: СССР, Россия
Жанр: мультфильмы
Качество: DVDRip/HDRip
Формат: AVI, MKV
Видео: см. в техданных
Аудио: см. в техданных
Продолжительность: см. в техданных
Описание:По случаю наступления "настоящей" зимы в Ташкенте представляю вам вторую часть подборки мультфильмов про праздник "Нового Года", "Ёлку" и "Снегурочку".
Состав раздачи:
В лесу родилась елочка
Дед Мороз и Серый волк
Как ёжик и медвежонок встречали Новый год
Кто придет на Новый год
Мисс Новый год
Новогодний ветер
Новогодняя сказка
Ну погоди! (8 серия)
Зима в Простоквашино
Снегурята
Тимошкина ёлка
Маша и Медведь (Раз,два,три! Ёлочка,гори!)
Маша и Медведь (Праздник на льду)
Машины сказки (Ловись рыбка)

Дополнительно:

Техническое описание и скриншоты

В лесу родилась елочка

Год выпуска: 1972
Описание: Как ожил нарисованный человечек и отправился в лес за елочкой.
Формат: MKV
Видео: AVC; 720x574 (4:3); 2201 Kbps; 25 fps; 0.213 bpp
Аудио: русский; AC3; 192 Kbps; CBR; 2 ch; 16 bit
Продолжительность: 00:06:28

Media Info

General
Unique ID : 178144966800314423823693791439583411855 (0x860578FC54A2DD198313FF9F676F7E8F)
Complete name : F:\Mults\СССР\Новый год\1\В лесу родилась елочка.mkv
Format : Matroska
Format version : Version 2
File size : 113 MiB
Duration : 6mn 28s
Overall bit rate : 2 442 Kbps
Encoded date : UTC 2011-12-16 19:33:43
Writing application : mkvmerge v5.0.1 ('Es ist Sommer') built on Oct 9 2011 11:55:43
Writing library : libebml v1.2.2 + libmatroska v1.3.0
Video
ID : 1
Format : AVC
Format/Info : Advanced Video Codec
Format profile : [email protected]
Format settings, CABAC : Yes
Format settings, ReFrames : 16 frames
Codec ID : V_MPEG4/ISO/AVC
Duration : 6mn 28s
Bit rate : 2 201 Kbps
Width : 720 pixels
Height : 574 pixels
Display aspect ratio : 4:3
Frame rate : 25.000 fps
Color space : YUV
Chroma subsampling : 4:2:0
Bit depth : 8 bits
Scan type : Progressive
Bits/(Pixel*Frame) : 0.213
Stream size : 102 MiB (90%)
Title : Nyc-2008 / rutracker.org / RG Multfilmy
Writing library : x264 core 120 r2120kMod 0c7dab9
Encoding settings : cabac=1 / ref=16 / deblock=1:0:0 / analyse=0x3:0x113 / me=umh / subme=11 / psy=1 / fade_compensate=0.00 / psy_rd=1.00:0.10 / mixed_ref=1 / me_range=24 / chroma_me=1 / trellis=2 / 8x8dct=1 / cqm=0 / deadzone=21,11 / fast_pskip=0 / chroma_qp_offset=-3 / threads=6 / sliced_threads=0 / nr=0 / decimate=1 / interlaced=0 / bluray_compat=0 / constrained_intra=0 / bframes=12 / b_pyramid=2 / b_adapt=2 / b_bias=0 / direct=1 / weightb=1 / open_gop=0 / weightp=2 / keyint=250 / keyint_min=25 / scenecut=40 / intra_refresh=0 / rc_lookahead=60 / rc=crf / mbtree=1 / crf=18.0000 / qcomp=0.60 / qpmin=0 / qpmax=69 / qpstep=4 / ip_ratio=1.40 / aq=2:1.00
Language : Russian
Default : Yes
Forced : No
Audio
ID : 2
Format : AC-3
Format/Info : Audio Coding 3
Mode extension : CM (complete main)
Format settings, Endianness : Big
Codec ID : A_AC3
Duration : 6mn 28s
Bit rate mode : Constant
Bit rate : 192 Kbps
Channel(s) : 2 channels
Channel positions : Front: L R
Sampling rate : 48.0 KHz
Bit depth : 16 bits
Compression mode : Lossy
Stream size : 8.89 MiB (8%)
Language : Russian
Default : Yes
Forced : No

Скриншоты

Дед Мороз и Серый волк

Год выпуска: 1978
В ролях: Анатолий Папанов (Волк, озвучка), Борис Владимиров (Ворона, озвучка), Георгий Вицин (Заяц, озвучка), Мария Виноградова (Зайчонок, озвучка), Маргарита Корабельникова (Зайчишка, озвучка), Ольга Громова (озвучка)
Описание: Новогодние приключения Деда Мороза, Снегурочки и их веселой свиты. Дед Мороз помогает зайчатам избавиться от преследований злого волка и принести из леса чудесную новогоднюю елку.
Формат: AVI
Видео: xvid; 720x544 (4:3); 2384 Kbps; 25 fps; 0.244 bpp
Аудио: MP3; 192 Kbps; CBR; 2 ch
Продолжительность: 00:16:43

Media Info

General
Complete name : F:\Mults\СССР\Новый год\1\Дед мороз и серый волк.avi
Format : AVI
Format/Info : Audio Video Interleave
File size : 310 MiB
Duration : 16mn 43s
Overall bit rate : 2 589 Kbps
Writing application : Lavf51.12.1
Video
ID : 0
Format : xvid
Codec ID : xvid
Duration : 16mn 43s
Bit rate : 2 385 Kbps
Width : 720 pixels
Height : 544 pixels
Display aspect ratio : 4:3
Frame rate : 25.000 fps
Bits/(Pixel*Frame) : 0.244
Stream size : 285 MiB (92%)
Audio
ID : 1
Format : MPEG Audio
Format version : Version 1
Format profile : Layer 3
Mode : Joint stereo
Mode extension : MS Stereo
Codec ID : 55
Codec ID/Hint : MP3
Duration : 16mn 43s
Bit rate mode : Constant
Bit rate : 192 Kbps
Channel(s) : 2 channels
Sampling rate : 44.1 KHz
Compression mode : Lossy
Stream size : 23.0 MiB (7%)
Alignment : Aligned on interleaves
Interleave, duration : 26 ms (0.65 video frame)

Скриншоты

Как ёжик и медвежонок встречали Новый год

Год выпуска: 1975
В ролях: Владимир Коршун (озвучка), Юрий Самсонов (озвучка)
Описание: Мультфильм, о том как ежик и медвежонок встречали Новый год. Они пытались найти в лесу елку, но не нашли. Ежик решил быть елкой сам, так как он на нее очень похож.
Формат: AVI
Видео: XviD; 704x544 (1.294); 2383 Kbps; 25 fps; 0.249 bpp
Аудио: AC3; 192 Kbps; CBR; 2 ch; 16 bit
Продолжительность: 00:07:39

Media Info

General
Complete name : F:\Mults\СССР\Новый год\1\Как ёжик и медвежонок встречали новый год.avi
Format : AVI
Format/Info : Audio Video Interleave
File size : 142 MiB
Duration : 7mn 39s
Overall bit rate : 2 586 Kbps
Movie name : 0:
Director : N
Genre : C
Writing application : V
Original source form/Name : C
Video
ID : 0
Format : MPEG-4 Visual
Format profile : Advanced [email protected]
Format settings, BVOP : 2
Format settings, QPel : No
Format settings, GMC : No warppoints
Format settings, Matrix : Default (MPEG)
Muxing mode : Packed bitstream
Codec ID : XVID
Codec ID/Hint : XviD
Duration : 7mn 39s
Bit rate : 2 384 Kbps
Width : 704 pixels
Height : 544 pixels
Display aspect ratio : 1.294
Frame rate : 25.000 fps
Color space : YUV
Chroma subsampling : 4:2:0
Bit depth : 8 bits
Scan type : Progressive
Compression mode : Lossy
Bits/(Pixel*Frame) : 0.249
Stream size : 131 MiB (92%)
Writing library : XviD 63
Audio
ID : 1
Format : AC-3
Format/Info : Audio Coding 3
Mode extension : CM (complete main)
Format settings, Endianness : Big
Codec ID : 2000
Duration : 7mn 39s
Bit rate mode : Constant
Bit rate : 192 Kbps
Channel(s) : 2 channels
Channel positions : Front: L R
Sampling rate : 48.0 KHz
Bit depth : 16 bits
Compression mode : Lossy
Stream size : 10.5 MiB (7%)
Alignment : Split accross interleaves
Interleave, duration : 40 ms (1.00 video frame)
Interleave, preload duration : 500 ms

Скриншоты

Кто придет на Новый год

Год выпуска: 1982
В ролях: М. Лобанов (озвучка), Лидия Королева (Медведица, озвучка), Наталья Крачковская (озвучка), Галина Иванова (озвучка), Алексей Борзунов (озвучка), Клара Румянова (Зайчонок, озвучка), Т. Каратаева (озвучка), Маргарита Богатская (озвучка)
Описание: Как Зайчонок готовился к встрече Нового года.
Формат: AVI
Видео: DivX 5; 512x384 (4:3); 1476 Kbps; 25 fps; 0.300 bpp
Аудио: MP3; 96 Kbps; CBR; 1 ch
Продолжительность: 00:09:50

Media Info

General
Complete name : F:\Mults\СССР\Новый год\1\Кто придет на новый год.avi
Format : AVI
Format/Info : Audio Video Interleave
File size : 111 MiB
Duration : 9mn 50s
Overall bit rate : 1 582 Kbps
Movie name : Kto pridjot na Novyj god?
Director : TO Ekran
Recorded date : 1982
Writing application : VirtualDubMod 1.5.10.1 (build 2366/release)
Writing library : VirtualDubMod build 2366/release
Comment : TVrip by Turtle @ XviDClub / DivX Pro 5.0.3 @ 0,30 bpp / Lame MP3 44,1 kHz Mono @ 96 kbps
Video
ID : 0
Format : MPEG-4 Visual
Format settings, BVOP : 1
Format settings, QPel : No
Format settings, GMC : No warppoints
Format settings, Matrix : Default (H.263)
Muxing mode : Packed bitstream
Codec ID : DX50
Codec ID/Hint : DivX 5
Duration : 9mn 50s
Bit rate : 1 476 Kbps
Width : 512 pixels
Height : 384 pixels
Display aspect ratio : 4:3
Frame rate : 25.000 fps
Color space : YUV
Chroma subsampling : 4:2:0
Bit depth : 8 bits
Scan type : Progressive
Compression mode : Lossy
Bits/(Pixel*Frame) : 0.300
Stream size : 104 MiB (93%)
Writing library : DivX 5.0.3 (UTC 2003-01-24)
Audio
ID : 1
Format : MPEG Audio
Format version : Version 1
Format profile : Layer 3
Codec ID : 55
Codec ID/Hint : MP3
Duration : 9mn 50s
Bit rate mode : Constant
Bit rate : 96.0 Kbps
Channel(s) : 1 channel
Sampling rate : 44.1 KHz
Compression mode : Lossy
Stream size : 6.75 MiB (6%)
Alignment : Split accross interleaves
Interleave, duration : 39 ms (0.97 video frame)
Interleave, preload duration : 500 ms

Скриншоты

Мисс Новый год

Год выпуска: 1991
В ролях: Ирина Муравьёва (озвучка), Ирина Карташёва (озвучка), Юрий Пузырев (озвучка), Александра Турган (озвучка), Вячеслав Богачёв (озвучка), Анатолий Баранцев (озвучка)
Описание: Добрая маленька Ворона, которую хлопотами мамаши признали первой красавицей новогоднего бала, отдала свою корону красавице Лисичке и тем заслужила общую любовь.
Формат: AVI
Видео: XviD; 672x496 (4:3); 2209 Kbps; 25 fps; 0.265 bpp
Аудио: AC3; 448 Kbps; CBR; 6 ch; 16 bit
Продолжительность: 00:09:04

Media Info

General
Complete name : F:\Mults\СССР\Новый год\1\Мисс Новый Год.avi
Format : AVI
Format/Info : Audio Video Interleave
File size : 173 MiB
Duration : 9mn 4s
Overall bit rate : 2 667 Kbps
Writing application : VirtualDubMod 1.5.10.2 (build 2540/release)
Writing library : VirtualDubMod build 2540/release
Video
ID : 0
Format : MPEG-4 Visual
Format profile : Advanced [email protected]
Format settings, BVOP : 2
Format settings, QPel : No
Format settings, GMC : No warppoints
Format settings, Matrix : Default (MPEG)
Muxing mode : Packed bitstream
Codec ID : XVID
Codec ID/Hint : XviD
Duration : 9mn 4s
Bit rate : 2 209 Kbps
Width : 672 pixels
Height : 496 pixels
Display aspect ratio : 4:3
Frame rate : 25.000 fps
Color space : YUV
Chroma subsampling : 4:2:0
Bit depth : 8 bits
Scan type : Progressive
Compression mode : Lossy
Bits/(Pixel*Frame) : 0.265
Stream size : 143 MiB (83%)
Writing library : XviD 1.1.2 (UTC 2006-11-01)
Audio
ID : 1
Format : AC-3
Format/Info : Audio Coding 3
Mode extension : CM (complete main)
Format settings, Endianness : Big
Codec ID : 2000
Duration : 9mn 4s
Bit rate mode : Constant
Bit rate : 448 Kbps
Channel(s) : 6 channels
Channel positions : Front: L C R, Side: L R, LFE
Sampling rate : 48.0 KHz
Bit depth : 16 bits
Compression mode : Lossy
Stream size : 29.1 MiB (17%)
Alignment : Split accross interleaves
Interleave, duration : 40 ms (1.00 video frame)
Interleave, preload duration : 500 ms

Скриншоты

Новогодний ветер

Год выпуска: 1975
В ролях: Гарри Бардин (озвучка), Агарь Власова (озвучка), Галина Кордуб (озвучка)
Описание: Новогодняя история для малышей.
Формат: AVI
Видео: DivX 5; 640x480 (4:3); 2301 Kbps; 25 fps; 0.300 bpp
Аудио: MP3; 256 Kbps; CBR; 2 ch
Продолжительность: 00:16:00

Media Info

General
Complete name : F:\Mults\СССР\Новый год\1\Новогодний ветер.avi
Format : AVI
Format/Info : Audio Video Interleave
File size : 294 MiB
Duration : 16mn 0s
Overall bit rate : 2 567 Kbps
Writing application : VirtualDubMod 1.5.10.2 (build 2542/release)
Writing library : VirtualDub build 32661/release
Video
ID : 0
Format : MPEG-4 Visual
Format settings, BVOP : Yes
Format settings, QPel : No
Format settings, GMC : No warppoints
Format settings, Matrix : Default (H.263)
Codec ID : DX50
Codec ID/Hint : DivX 5
Duration : 16mn 0s
Bit rate : 2 301 Kbps
Width : 640 pixels
Height : 480 pixels
Display aspect ratio : 4:3
Frame rate : 25.000 fps
Color space : YUV
Chroma subsampling : 4:2:0
Bit depth : 8 bits
Scan type : Progressive
Compression mode : Lossy
Bits/(Pixel*Frame) : 0.300
Stream size : 263 MiB (90%)
Writing library : DivX 6.8.5 (UTC 2009-08-20)
Audio
ID : 1
Format : MPEG Audio
Format version : Version 1
Format profile : Layer 3
Mode : Joint stereo
Codec ID : 55
Codec ID/Hint : MP3
Duration : 16mn 0s
Bit rate mode : Constant
Bit rate : 256 Kbps
Channel(s) : 2 channels
Sampling rate : 48.0 KHz
Compression mode : Lossy
Stream size : 29.3 MiB (10%)
Alignment : Split accross interleaves
Interleave, duration : 40 ms (1.00 video frame)
Interleave, preload duration : 500 ms
Writing library : LAME3.98.2

Скриншоты

Новогодняя сказка

Год выпуска: 1972
В ролях: Ефим Кациров (озвучка), Бронислава Захарова (озвучка), Надежда Подъяпольская (озвучка), Ольга Громова (озвучка)
Описание: Как Чудище-Снежище помогло детям встретить Новый Год.
Формат: AVI
Видео: XviD; 704x528 (4:3); 1481 Kbps; 25 fps; 0.159 bpp
Аудио: AC3; 192 Kbps; CBR; 2 ch; 16 bit
Продолжительность: 00:16:37

Media Info

General
Complete name : F:\Mults\СССР\Новый год\1\Новогодняя сказка.avi
Format : AVI
Format/Info : Audio Video Interleave
File size : 200 MiB
Duration : 16mn 37s
Overall bit rate : 1 683 Kbps
Writing application : VirtualDubMod 1.5.10.2 (build 2540/release)
Writing library : VirtualDubMod build 2540/release
Video
ID : 0
Format : MPEG-4 Visual
Format profile : Advanced [email protected]
Format settings, BVOP : 1
Format settings, QPel : No
Format settings, GMC : No warppoints
Format settings, Matrix : Default (H.263)
Codec ID : XVID
Codec ID/Hint : XviD
Duration : 16mn 37s
Bit rate : 1 481 Kbps
Width : 704 pixels
Height : 528 pixels
Display aspect ratio : 4:3
Frame rate : 25.000 fps
Color space : YUV
Chroma subsampling : 4:2:0
Bit depth : 8 bits
Scan type : Progressive
Compression mode : Lossy
Bits/(Pixel*Frame) : 0.159
Stream size : 176 MiB (88%)
Writing library : XviD 1.2.0.dev47 (UTC 2006-11-01)
Audio
ID : 1
Format : AC-3
Format/Info : Audio Coding 3
Mode extension : CM (complete main)
Format settings, Endianness : Big
Codec ID : 2000
Duration : 16mn 37s
Bit rate mode : Constant
Bit rate : 192 Kbps
Channel(s) : 2 channels
Channel positions : Front: L R
Sampling rate : 48.0 KHz
Bit depth : 16 bits
Compression mode : Lossy
Stream size : 22.8 MiB (11%)
Alignment : Split accross interleaves
Interleave, duration : 40 ms (1.00 video frame)
Interleave, preload duration : 500 ms

Скриншоты

Ну погоди! (8 серия)

Год выпуска: 1969 (1 сезон)
В ролях: Клара Румянова (Заяц, озвучка), Анатолий Папанов (Волк, озвучка), Геннадий Хазанов (озвучка), Владимир Сошальский (Бегемот, озвучка), Игорь Христенко (озвучка)
Описание: Веселые приключения неразлучной парочки - хулигана Волка и смышленого Зайца. Любимые с детства сцены погонь, ссор и примирений, шутки и мелодии.
Формат: AVI
Видео: XviD; 720x544 (5:4); 2312 Kbps; 25 fps; 0.236 bpp
Аудио: AC3; 448 Kbps; CBR; 6 ch; 16 bit
Продолжительность: 00:09:22

Media Info

General
Complete name : F:\Mults\СССР\Новый год\1\Ну погоди! (8 серия).avi
Format : AVI
Format/Info : Audio Video Interleave
File size : 186 MiB
Duration : 9mn 22s
Overall bit rate : 2 770 Kbps
Writing application : VirtualDubModRus 1.5.10.2 (build 2542/release)
Writing library : VirtualDubMod build 2542/release
Video
ID : 0
Format : MPEG-4 Visual
Format profile : Advanced [email protected]
Format settings, BVOP : 2
Format settings, QPel : No
Format settings, GMC : No warppoints
Format settings, Matrix : Default (H.263)
Muxing mode : Packed bitstream
Codec ID : XVID
Codec ID/Hint : XviD
Duration : 9mn 22s
Bit rate : 2 313 Kbps
Width : 720 pixels
Height : 544 pixels
Display aspect ratio : 5:4
Original display aspect ratio : 4:3
Frame rate : 25.000 fps
Color space : YUV
Chroma subsampling : 4:2:0
Bit depth : 8 bits
Scan type : Progressive
Compression mode : Lossy
Bits/(Pixel*Frame) : 0.236
Stream size : 155 MiB (83%)
Writing library : XviD 1.2.1 (UTC 2008-12-04)
Audio
ID : 1
Format : AC-3
Format/Info : Audio Coding 3
Mode extension : CM (complete main)
Format settings, Endianness : Big
Codec ID : 2000
Duration : 9mn 22s
Bit rate mode : Constant
Bit rate : 448 Kbps
Channel(s) : 6 channels
Channel positions : Front: L C R, Side: L R, LFE
Sampling rate : 48.0 KHz
Bit depth : 16 bits
Compression mode : Lossy
Stream size : 30.0 MiB (16%)
Alignment : Aligned on interleaves
Interleave, duration : 40 ms (1.00 video frame)
Interleave, preload duration : 512 ms

Скриншоты

Зима в Простоквашино

Год выпуска: 1984
В ролях: Борис Новиков (почтальон Печкин, озвучка), Олег Табаков (кот Матроскин, озвучка), Лев Дуров (Шарик, озвучка), Валентина Талызина (мама, озвучка), Герман Качин (Папа, озвучка), Мария Виноградова (дядя Фёдор, озвучка), Зинаида Нарышкина (галчонок Хватайка, озвучка)
Описание: Шарик купил себе на зиму вместо валенок кеды, Матроскин обозвал его балбесом, и друзья друг с другом не разговаривали. Дядя Федор тем временем ремонтировал с папой «запорожца», а маме все надоело.
А на Новый год папа с Федором решили поехать в Простоквашино проведать Шарика с Матроскиным, которые уже начали раздел имущества... Там все и встретили Новый Год - даже мама на лыжах приехала!
Формат: AVI
Видео: XviD; 640x480 (4:3); 1882 Kbps; 25 fps; 0.245 bpp
Аудио: MP3; 128 Kbps; CBR; 2 ch
Продолжительность: 00:15:42

Media Info

General
Complete name : F:\Mults\СССР\Новый год\1\Простоквашино. Зима в простоквашино.avi
Format : AVI
Format/Info : Audio Video Interleave
File size : 227 MiB
Duration : 15mn 42s
Overall bit rate : 2 021 Kbps
Movie name : Зима в Простоквашино
Director : agor
Genre : Child's
Writing application : VirtualDubMod 1.5.10.1 (build 2439/release)
Writing library : VirtualDubMod build 2439/release
Original source form/Name : Cartoon
Video
ID : 0
Format : MPEG-4 Visual
Format profile : Advanced [email protected]
Format settings, BVOP : 2
Format settings, QPel : No
Format settings, GMC : No warppoints
Format settings, Matrix : Default (MPEG)
Codec ID : XVID
Codec ID/Hint : XviD
Duration : 15mn 42s
Bit rate : 1 883 Kbps
Width : 640 pixels
Height : 480 pixels
Display aspect ratio : 4:3
Frame rate : 25.000 fps
Color space : YUV
Chroma subsampling : 4:2:0
Bit depth : 8 bits
Scan type : Progressive
Compression mode : Lossy
Bits/(Pixel*Frame) : 0.245
Stream size : 211 MiB (93%)
Writing library : XviD 1.0.3 (UTC 2004-12-20)
Audio
ID : 1
Format : MPEG Audio
Format version : Version 1
Format profile : Layer 3
Codec ID : 55
Codec ID/Hint : MP3
Duration : 15mn 42s
Bit rate mode : Constant
Bit rate : 128 Kbps
Channel(s) : 2 channels
Sampling rate : 48.0 KHz
Compression mode : Lossy
Stream size : 14.4 MiB (6%)
Alignment : Aligned on interleaves
Interleave, duration : 40 ms (1.00 video frame)
Interleave, preload duration : 504 ms

Скриншоты

Снегурята

Год выпуска: 1986
В ролях: Светлана Степченко (озвучка), Татьяна Шатилова (озвучка), Анатолий Баранцев (озвучка), Георгий Вицин (озвучка), Юрий Волынцев (озвучка), Герман Качин (озвучка), Всеволод Ларионов (озвучка)
Описание: О чудесах, которые происходят накануне нового года.
Формат: AVI
Видео: XviD; 672x512 (4:3); 1996 Kbps; 25 fps; 0.232 bpp
Аудио: английский; MP3; 128 Kbps; CBR; 2 ch
Продолжительность: 00:10:10

Media Info

General
Complete name : F:\Mults\СССР\Новый год\1\Снегурята.avi
Format : AVI
Format/Info : Audio Video Interleave
File size : 155 MiB
Duration : 10mn 10s
Overall bit rate : 2 131 Kbps
Writing application : VirtualDubMod 1.5.4.1 (build 2178/release)
Writing library : VirtualDubMod build 2178/release
Video
ID : 0
Format : MPEG-4 Visual
Format profile : Advanced [email protected]
Format settings, BVOP : 1
Format settings, QPel : No
Format settings, GMC : No warppoints
Format settings, Matrix : Custom
Codec ID : XVID
Codec ID/Hint : XviD
Duration : 10mn 10s
Bit rate : 1 996 Kbps
Width : 672 pixels
Height : 512 pixels
Display aspect ratio : 4:3
Frame rate : 25.000 fps
Color space : YUV
Chroma subsampling : 4:2:0
Bit depth : 8 bits
Scan type : Progressive
Compression mode : Lossy
Bits/(Pixel*Frame) : 0.232
Stream size : 145 MiB (94%)
Writing library : XviD 1.0.0 (UTC 2004-05-09)
Audio
ID : 1
Format : MPEG Audio
Format version : Version 1
Format profile : Layer 3
Mode : Joint stereo
Codec ID : 55
Codec ID/Hint : MP3
Duration : 10mn 10s
Bit rate mode : Constant
Bit rate : 128 Kbps
Channel(s) : 2 channels
Sampling rate : 48.0 KHz
Compression mode : Lossy
Stream size : 9.31 MiB (6%)
Alignment : Aligned on interleaves
Interleave, duration : 80 ms (2.00 video frames)
Interleave, preload duration : 504 ms
Writing library : LAME3.90.3
Language : English

Скриншоты

Тимошкина ёлка

Год выпуска: 1966
Описание: Что за Новый год без ёлки? Маленький Тимошка решил, что без ёлки - никуда. И под самый Новый год отважный мальчуган и его верный щенок отправились в лес за ёлкой!
Формат: AVI
Видео: XviD; 640x480 (4:3); 2386 Kbps; 25 fps; 0.311 bpp
Аудио: AC3; 192 Kbps; CBR; 2 ch; 16 bit
Продолжительность: 00:09:49

Media Info

General
Complete name : F:\Mults\СССР\Новый год\1\Тимошкина Ёлка.avi
Format : AVI
Format/Info : Audio Video Interleave
File size : 182 MiB
Duration : 9mn 49s
Overall bit rate : 2 589 Kbps
Writing application : VirtualDubMod 1.5.10.1 Рус от Stvens Inc.™ http://www.stvens.amillo.net (build 2439/release)
Writing library : VirtualDubMod build 2439/release
Video
ID : 0
Format : MPEG-4 Visual
Format profile : Advanced [email protected]
Format settings, BVOP : 1
Format settings, QPel : No
Format settings, GMC : No warppoints
Format settings, Matrix : Default (MPEG)
Muxing mode : Packed bitstream
Codec ID : XVID
Codec ID/Hint : XviD
Duration : 9mn 49s
Bit rate : 2 387 Kbps
Width : 640 pixels
Height : 480 pixels
Display aspect ratio : 4:3
Frame rate : 25.000 fps
Color space : YUV
Chroma subsampling : 4:2:0
Bit depth : 8 bits
Scan type : Progressive
Compression mode : Lossy
Bits/(Pixel*Frame) : 0.311
Stream size : 168 MiB (92%)
Writing library : XviD 1.0.3 (UTC 2004-12-20)
Audio
ID : 1
Format : AC-3
Format/Info : Audio Coding 3
Mode extension : CM (complete main)
Format settings, Endianness : Big
Codec ID : 2000
Duration : 9mn 49s
Bit rate mode : Constant
Bit rate : 192 Kbps
Channel(s) : 2 channels
Channel positions : Front: L R
Sampling rate : 48.0 KHz
Bit depth : 16 bits
Compression mode : Lossy
Delay relative to video : 8ms
Stream size : 13.5 MiB (7%)
Alignment : Split accross interleaves
Interleave, duration : 40 ms (1.00 video frame)
Interleave, preload duration : 500 ms

Скриншоты

Маша и Медведь (Раз,два,три! Ёлочка,гори!)

Год выпуска: 2009 (1 сезон)
В ролях: Алина Кукушкина (Маша, озвучка), Борис Кутневич (Медведь, озвучка), Эдуард Назаров (озвучка)
Описание: Мультсериал про девочку Машу, которая никому не дает покоя, и в первую очередь - своему другу Медведю.
Качество: HDRip
Формат: MKV
Видео: AVC; 1280x720 (16:9); 6006 Kbps; 24 fps; 0.272 bpp
Аудио: AC3; 448 Kbps; CBR; 6 ch; 16 bit
Продолжительность: 00:08:06

Media Info

General
Unique ID : 215621476816205367913133621524101620931 (0xA2372F962E6136338C901722067064C3)
Complete name : F:\Mults\СССР\Новый год\1\03-Раз,два,три! Ёлочка,гори!.mkv
Format : Matroska
Format version : Version 2
File size : 382 MiB
Duration : 8mn 6s
Overall bit rate mode : Variable
Overall bit rate : 6 586 Kbps
Encoded date : UTC 2010-05-24 11:39:04
Writing application : mkvmerge v3.3.0 ('Language') built on Mar 24 2010 14:59:24
Writing library : libebml v0.8.0 + libmatroska v0.9.0
Video
ID : 1
Format : AVC
Format/Info : Advanced Video Codec
Format profile : [email protected]
Format settings, CABAC : Yes
Format settings, ReFrames : 6 frames
Codec ID : V_MPEG4/ISO/AVC
Duration : 8mn 6s
Bit rate mode : Variable
Bit rate : 6 007 Kbps
Maximum bit rate : 6 130 Kbps
Width : 1 280 pixels
Height : 720 pixels
Display aspect ratio : 16:9
Frame rate : 24.000 fps
Color space : YUV
Chroma subsampling : 4:2:0
Bit depth : 8 bits
Scan type : Progressive
Bits/(Pixel*Frame) : 0.272
Stream size : 348 MiB (91%)
Default : Yes
Forced : No
Audio
ID : 2
Format : AC-3
Format/Info : Audio Coding 3
Mode extension : CM (complete main)
Format settings, Endianness : Big
Codec ID : A_AC3
Duration : 8mn 6s
Bit rate mode : Constant
Bit rate : 448 Kbps
Channel(s) : 6 channels
Channel positions : Front: L C R, Side: L R, LFE
Sampling rate : 48.0 KHz
Bit depth : 16 bits
Compression mode : Lossy
Stream size : 26.0 MiB (7%)
Default : Yes
Forced : No

Скриншоты

Маша и Медведь (Праздник на льду)

Год выпуска: 2009 (1 сезон)
В ролях: Алина Кукушкина (Маша, озвучка), Борис Кутневич (Медведь, озвучка), Эдуард Назаров (озвучка)
Описание: Мультсериал про девочку Машу, которая никому не дает покоя, и в первую очередь - своему другу Медведю.
Качество: HDRip
Формат: MKV
Видео: AVC; 1280x720 (16:9); 4737 Kbps; 25 fps; 0.206 bpp
Аудио: русский; AC3; 256 Kbps; CBR; 2 ch; 16 bit
Продолжительность: 00:06:52

Media Info

General
Unique ID : 140604847225821942151373831706407949715 (0x69C78230F9F4449ED7BE2E04BBF55593)
Complete name : F:\Mults\СССР\Новый год\1\10-Праздник на льду.mkv
Format : Matroska
Format version : Version 2
File size : 250 MiB
Duration : 6mn 52s
Overall bit rate : 5 095 Kbps
Writing application : Lavf52.103.0
Writing library : Lavf52.103.0
Video
ID : 1
Format : AVC
Format/Info : Advanced Video Codec
Format profile : [email protected]
Format settings, CABAC : Yes
Format settings, ReFrames : 3 frames
Codec ID : V_MPEG4/ISO/AVC
Duration : 6mn 52s
Bit rate : 4 737 Kbps
Nominal bit rate : 4 500 Kbps
Width : 1 280 pixels
Height : 720 pixels
Display aspect ratio : 16:9
Frame rate mode : Variable
Frame rate : 25.000 fps
Color space : YUV
Chroma subsampling : 4:2:0
Bit depth : 8 bits
Scan type : Progressive
Bits/(Pixel*Frame) : 0.206
Stream size : 233 MiB (93%)
Writing library : x264 core 114 r1924M 08d04a4
Encoding settings : cabac=1 / ref=3 / deblock=1:0:0 / analyse=0x3:0x133 / me=dia / subme=5 / psy=1 / psy_rd=0.00:0.00 / mixed_ref=1 / me_range=16 / chroma_me=1 / trellis=0 / 8x8dct=1 / cqm=0 / deadzone=21,11 / fast_pskip=1 / chroma_qp_offset=0 / threads=7 / sliced_threads=0 / nr=0 / decimate=1 / interlaced=0 / constrained_intra=0 / bframes=3 / b_pyramid=1 / b_adapt=0 / b_bias=0 / direct=3 / weightb=1 / open_gop=0 / weightp=0 / keyint=250 / keyint_min=25 / scenecut=40 / intra_refresh=0 / rc_lookahead=40 / rc=abr / mbtree=1 / bitrate=4500 / ratetol=1.0 / qcomp=0.60 / qpmin=10 / qpmax=51 / qpstep=4 / ip_ratio=1.40 / aq=1:1.00
Default : Yes
Forced : No
Audio
ID : 2
Format : AC-3
Format/Info : Audio Coding 3
Mode extension : CM (complete main)
Format settings, Endianness : Big
Codec ID : A_AC3
Duration : 6mn 52s
Bit rate mode : Constant
Bit rate : 256 Kbps
Channel(s) : 2 channels
Channel positions : Front: L R
Sampling rate : 48.0 KHz
Bit depth : 16 bits
Compression mode : Lossy
Stream size : 12.6 MiB (5%)
Language : Russian
Default : Yes
Forced : No

Скриншоты

Машины сказки (Ловись рыбка)

Год выпуска: 2011
Описание: Маша рассказывает двум своим игрушкам, Кукле и Мишке, сказки. В этих сказках имеется юмор и своеобразие.
Формат: AVI
Видео: XviD; 720x400 (16:9); 1926 Kbps; 25 fps; 0.268 bpp
Аудио: AC3; 192 Kbps; CBR; 2 ch; 16 bit
Продолжительность: 00:05:33

Media Info

General
Complete name : F:\Mults\СССР\Новый год\1\Ловись рыбка.avi
Format : AVI
Format/Info : Audio Video Interleave
File size : 84.7 MiB
Duration : 5mn 33s
Overall bit rate : 2 129 Kbps
Writing application : VirtualDubMod 1.5.10.2 (build 2540/release)
Writing library : VirtualDub build 32842/release
Video
ID : 0
Format : MPEG-4 Visual
Format profile : Advanced [email protected]
Format settings, BVOP : 2
Format settings, QPel : No
Format settings, GMC : No warppoints
Format settings, Matrix : Default (MPEG)
Codec ID : XVID
Codec ID/Hint : XviD
Duration : 5mn 33s
Bit rate : 1 927 Kbps
Width : 720 pixels
Height : 400 pixels
Display aspect ratio : 16:9
Frame rate : 25.000 fps
Color space : YUV
Chroma subsampling : 4:2:0
Bit depth : 8 bits
Scan type : Progressive
Compression mode : Lossy
Bits/(Pixel*Frame) : 0.268
Stream size : 76.6 MiB (91%)
Writing library : XviD 1.2.1 (UTC 2008-12-04)
Audio
ID : 1
Format : AC-3
Format/Info : Audio Coding 3
Mode extension : CM (complete main)
Format settings, Endianness : Big
Codec ID : 2000
Duration : 5mn 33s
Bit rate mode : Constant
Bit rate : 192 Kbps
Channel(s) : 2 channels
Channel positions : Front: L R
Sampling rate : 48.0 KHz
Bit depth : 16 bits
Compression mode : Lossy
Delay relative to video : 8ms
Stream size : 7.64 MiB (9%)
Alignment : Split accross interleaves
Interleave, duration : 40 ms (1.00 video frame)
Interleave, preload duration : 500 ms

Скриншоты

Создавать темы 28-Дек-2012 01:53

[Профиль]  [ЛС] 

Robot-IX

Стаж: 5 лет 4 месяца

Сообщений: 223

Симпатии: 9

спассс! мульты не для одного поколения...! какие они тёплые )) Рекомендую!
Сборник мультфильмов "Зимушка-Зима" (часть 1) [1956-1983, Мультфильм, DVDRip ]

Создавать темы 05-Июл-2013 01:38

[Профиль]  [ЛС] 
Показать сообщения:    
Ответить на тему

Текущее время: 19-Авг 14:30

Часовой пояс: UTC + 5



Вы не можете начинать темы
Вы не можете отвечать на сообщения
Вы не можете редактировать свои сообщения
Вы не можете удалять свои сообщения
Вы не можете голосовать в опросах
Вы не можете прикреплять файлы к сообщениям
Вы не можете скачивать файлы