Березовский / Фильм-расследование Андрея Кондрашова (Александр Касьянов и Александр Кушуля) [2012 г., Документальный, SATRip]

Ответить на тему
 

silkway ®

Стаж: 6 лет 7 месяцев

Сообщений: 32

Симпатии: 14

Березовский / Фильм-расследование Андрея Кондрашова
Год выпуска: 2012
Жанр: Документальный
Продолжительность: 02:06:16
Режиссер: Александр Касьянов и Александр Кушуля
Описание: Борис Березовский скрывается в психиатрической клинике Израиля. Чего же боится олигарх? После того как миллиардер обанкротился, впервые заговорили его бывшие "коллеги". Зачем Березовский готовился взорвать Ющенко перед выборами президента Украины? И куда все-таки пропал Иван Рыбкин в канун президентских выборов в России. Впервые украинские спецслужбы открывают сейф с документами под грифом "Совершенно секретно" в документальном фильме "Березовский".
Качество: SATRip
Формат: AVI
Видео кодек: DivX
Аудио кодек: MP3
Видео: DivX, 1850 Kbps, 704x384, 25.000 fps
Аудио: MP3, 128 Kbps, 44.1 Hz, 2ch

Mediainfo

Общее
Полное имя : E:\Downloads\55\Berezovskii.(2012).SATRip.avi
Формат : AVI
Формат/Информация : Audio Video Interleave
Размер файла : 1,76 Гбайт
Продолжительность : 2 ч. 6 м.
Общий поток : 1988 Кбит/сек
Библиотека кодирования : VirtualDub build 24442/release
Видео
Идентификатор : 0
Формат : MPEG-4 Visual
Параметр BVOP формата : 1
Параметр QPel формата : Нет
Параметр GMC формата : Без точки перехода
Параметр матрицы формата : Default (H.263)
Режим смешивания : Сжатый битовый поток
Идентификатор кодека : DX50
Идентификатор кодека/Подсказка : DivX 5
Продолжительность : 2 ч. 6 м.
Битрейт : 1850 Кбит/сек
Ширина : 704 пикс.
Высота : 384 пикс.
Соотношение сторон : 16:9
Частота кадров : 25,000 кадр/сек
Цветовое пространство : YUV
Подвыборка цветности : 4:2:0
Битовая глубина : 8 бит
Тип развёртки : Прогрессивная
Метод сжатия : С потерями
Бит/(Пиксели*Кадры) : 0.274
Размер потока : 1,64 Гбайт (93%)
Библиотека кодирования : DivX 3013
Аудио
Идентификатор : 1
Формат : MPEG Audio
Версия формата : Version 1
Профиль формата : Layer 3
Идентификатор кодека : 55
Идентификатор кодека/Подсказка : MP3
Продолжительность : 2 ч. 6 м.
Вид битрейта : Постоянный
Битрейт : 128 Кбит/сек
Каналы : 2 канала
Частота : 44,1 КГц
Метод сжатия : С потерями
Задержка видео : 15 мс.
Размер потока : 116 Мбайт (6%)
Выравнивание : Разделение по промежуткам
Продолжительность промежутка : 40 мс. (1,00 видеокадр)
Время предзагрузки промежутка : 500 ms

Скриншоты




Создавать темы 28-Дек-2012 16:34

[Профиль]  [ЛС] 

KGB_USSR

Стаж: 7 лет 2 месяца

Сообщений: 75

Фильм класс

Создавать темы 28-Дек-2012 18:10

[Профиль]  [ЛС] 

2222

Стаж: 5 лет 1 месяц

Сообщений: 193

Симпатии: 3

ban Разда4а идет?

_________________
Подпись отключена за нарушение правил форума

Создавать темы 31-Дек-2012 16:25

[Профиль]  [ЛС] 
Показать сообщения:    
Ответить на тему

Текущее время: 21-Авг 00:06

Часовой пояс: UTC + 5



Вы не можете начинать темы
Вы не можете отвечать на сообщения
Вы не можете редактировать свои сообщения
Вы не можете удалять свои сообщения
Вы не можете голосовать в опросах
Вы не можете прикреплять файлы к сообщениям
Вы не можете скачивать файлы