Параллельные Миры / Upside Down (Хуан Диего Соланас) [2012 г., Драма, мелодрама, фэнтези, BDRip 1080p]

Ответить на тему
 

DMiTRY ®

Стаж: 6 лет 6 месяцев

Сообщений: 649

Симпатии: 28

Параллельные Миры / Upside Down
Год выпуска: 2012
Страна: Канада, Франция
Жанр: Драма, мелодрама, фэнтези
Продолжительность: 01:43:28
Перевод: Профессиональный (полное дублирование)
Режиссер: Хуан Диего Соланас
В ролях: Кирстен Данст, Джим Стёрджесс, Нил Напье, Стелла Маив, Джэйн Хейтмейер, Ларри Дэй, Джон МакЛарен, Дон Джордан, Холли О’Брайэн
Описание: Однажды, несколько тысяч лет тому назад, две планеты притянулись друг к другу. Там правили мир и гармония. Но стоило верхнему миру обрести уверенность и власть, как между планетами началось противостояние. Казалось, ничто не может примирить параллельные миры.
Она — дочь президента верхнего мира. Эта хрупкая девушка с сильным характером и не подозревала, что душа ее способна любить. Он — ее половина. Их встреча была предопределена свыше, их судьбы переплелись воедино. Сможет ли Он, вопреки законам физики своего мира, быть вместе со своей любимой?
Качество: BDRip 1080p
Формат: MKV
Видео кодек: H.264
Аудио кодек: AC3
Видео: H264/AVC, 1920x856, 7005 кб/с, 24 fps
Аудио: AC3 5.1 Surround, 640 кб/с, 48000 Hz | Русский (дублированный)

Скриншоты



Meдиаинфо

Параллельные миры [2012 BD-RIP 1080p].mkv
Format : Matroska
Format version : Version 2
File size : 5.76 GiB
Duration : 1h 47mn
Overall bit rate : 7 647 Kbps
Movie name : Параллельные миры / Upside Down (2012)
Encoded date : UTC 2012-09-29 06:01:07
Writing application : mkvmerge v5.8.0 ('No Sleep / Pillow') built on Sep 2 2012 15:37:04
Writing library : libebml v1.2.3 + libmatroska v1.3.0
Video
ID : 1
Format : AVC
Format/Info : Advanced Video Codec
Format profile : [email protected]
Format settings, CABAC : Yes
Format settings, ReFrames : 5 frames
Codec ID : V_MPEG4/ISO/AVC
Duration : 1h 47mn
Bit rate : 7 007 Kbps
Width : 1 920 pixels
Height : 856 pixels
Display aspect ratio : 2.25:1
Frame rate mode : Constant
Frame rate : 23.976 fps
Color space : YUV
Chroma subsampling : 4:2:0
Bit depth : 8 bits
Scan type : Progressive
Bits/(Pixel*Frame) : 0.178
Stream size : 5.16 GiB (90%)
Title : Release by AlexKa
Writing library : x264 core 128 r2216 198a7ea
Encoding settings : cabac=1 / ref=5 / deblock=1:-3:-3 / analyse=0x3:0x133 / me=umh / subme=10 / psy=1 / psy_rd=1.00:0.10 / mixed_ref=1 / me_range=32 / chroma_me=1 / trellis=2 / 8x8dct=1 / cqm=0 / deadzone=21,11 / fast_pskip=0 / chroma_qp_offset=-3 / threads=12 / lookahead_threads=2 / sliced_threads=0 / nr=0 / decimate=0 / interlaced=0 / bluray_compat=0 / constrained_intra=0 / bframes=5 / b_pyramid=2 / b_adapt=2 / b_bias=0 / direct=3 / weightb=1 / open_gop=0 / weightp=2 / keyint=240 / keyint_min=23 / scenecut=40 / intra_refresh=0 / rc=2pass / mbtree=0 / bitrate=7007 / ratetol=1.0 / qcomp=0.60 / qpmin=0 / qpmax=69 / qpstep=4 / cplxblur=20.0 / qblur=0.5 / ip_ratio=1.40 / pb_ratio=1.30 / aq=1:0.80
Language : English
Default : Yes
Forced : No
Audio
ID : 2
Format : AC-3
Format/Info : Audio Coding 3
Mode extension : CM (complete main)
Format settings, Endianness : Big
Codec ID : A_AC3
Duration : 1h 47mn
Bit rate mode : Constant
Bit rate : 640 Kbps
Channel(s) : 6 channels
Channel positions : Front: L C R, Side: L R, LFE
Sampling rate : 48.0 KHz
Bit depth : 16 bits
Compression mode : Lossy
Stream size : 494 MiB (8%)
Title : Rus
Language : Russian
Default : Yes
Forced : No
Menu
00:00:00.000 : :Chapter 01
00:07:45.756 : :Chapter 02
00:18:40.619 : :Chapter 03
00:29:54.375 : :Chapter 04
00:39:50.721 : :Chapter 05
00:50:09.089 : :Chapter 06
00:59:08.753 : :Chapter 07
01:07:43.309 : :Chapter 08
01:17:00.157 : :Chapter 09
01:27:02.050 : :Chapter 10
01:38:44.752 : :Chapter 11
01:47:49.796 : :Chapter 12


Последний раз редактировалось: DMiTRY (2012-12-29 13:43), всего редактировалось 1 раз

Создавать темы 28-Дек-2012 18:45

[Профиль]  [ЛС] 

DMiTRY ®

Стаж: 6 лет 6 месяцев

Сообщений: 649

Симпатии: 28

сегодня к часикам 12 встану на раздачу.

Создавать темы 29-Дек-2012 01:51

[Профиль]  [ЛС] 

ziyod

Стаж: 7 лет 9 месяцев

Сообщений: 367

Симпатии: 60

Видео: H264/AVC, 1920x856, 7005 кб/с, 24 fps
К раздаче в разделе «HD Video» допускается только материал высокого качества.
Допустимые разрешения видеопотока: от 720p и выше.
Минимальный средний битрейт для видеопотока рипов:
1080p с AR 2.4, 2.35 — 8000 kbps

Создавать темы 29-Дек-2012 15:07

[Профиль]  [ЛС] 

Топик был перенесен из форума Зарубежное кино в форум HD-AVC

ziyod

Создавать темы 29-Дек-2012 15:08

 

aziz2725272

Стаж: 5 лет 2 месяца

Сообщений: 158

Симпатии: 6

а меня разница нету только скорость дайте плизззз

Создавать темы 31-Дек-2012 22:37

[Профиль]  [ЛС] 

Rioo

Стаж: 4 года 2 месяца

Сообщений: 12

ЛИчер помогай

Создавать темы 13-Фев-2014 22:03

[Профиль]  [ЛС] 
Показать сообщения:    
Ответить на тему

Текущее время: 14-Дек 14:49

Часовой пояс: UTC + 5



Вы не можете начинать темы
Вы не можете отвечать на сообщения
Вы не можете редактировать свои сообщения
Вы не можете удалять свои сообщения
Вы не можете голосовать в опросах
Вы не можете прикреплять файлы к сообщениям
Вы не можете скачивать файлы