Убей их всех / Kill 'em All (Раймунд Хубер) [2012 г., боевик, HDRip]

Ответить на тему
 

Optimus Prime ®

Стаж: 4 года 10 месяцев

Сообщений: 32

Симпатии: 4

- -- Год выпуска: 2012
Страна: США
Жанр: боевик
Продолжительность: 01:26:12
Перевод: Любительский (одноголосый)-Режиссер: Раймунд Хубер-В ролях: Джонни Месснер, Джа Хyй Лью, Джо Льюис, Тим Мэн, Аммара Сирипонг, Рашид Феникс, Брахим Ачаббаке,Эрик Маркус Шуетз,--Описание: Маниакальный злодей управляет смертельной игрой, в которую вовлечены ассасины со всего мира. Размещенные внутри изолированного бункера, эти безжалостные злодеи должны схватиться друг с другом и только один получит главный приз, а также свободу.--Качество: HDRip
Формат: AVI
Видео кодек: XviD
Аудио кодек: AC3
Видео: 720x400, 23.976 fps, 2 275 Kbps, 4:2:0
Аудио: Audio Coding 3, 384 Kbps, 6 channels, 48.0 KHz,
--

Скриншоты

MediaInfo

General
Complete name : G:\Torrent\Downloads\Kill.EM.All.2013.L1.DVDRip.1400Mb.avi
Format : AVI
Format/Info : Audio Video Interleave
File size : 1.37 GiB
Duration : 1h 26mn
Overall bit rate : 2 275 Kbps
Movie name : GOLIAF.TV
Writing application : VirtualDubMod 1.5.10.2 (build 2540/release)
Writing library : VirtualDubMod build 2540/release
Video
ID : 0
Format : MPEG-4 Visual
Format profile : Advanced [email protected]
Format settings, BVOP : 2
Format settings, QPel : No
Format settings, GMC : No warppoints
Format settings, Matrix : Default (H.263)
Codec ID : XVID
Codec ID/Hint : XviD
Duration : 1h 26mn
Bit rate : 1 882 Kbps
Width : 720 pixels
Height : 400 pixels
Display aspect ratio : 16:9
Frame rate : 23.976 fps
Color space : YUV
Chroma subsampling : 4:2:0
Bit depth : 8 bits
Scan type : Progressive
Compression mode : Lossy
Bits/(Pixel*Frame) : 0.273
Stream size : 1.13 GiB (83%)
Writing library : XviD 1.2.1 (UTC 2008-12-04)
Audio
ID : 1
Format : AC-3
Format/Info : Audio Coding 3
Mode extension : CM (complete main)
Codec ID : 2000
Duration : 1h 26mn
Bit rate mode : Constant
Bit rate : 384 Kbps
Channel(s) : 6 channels
Channel positions : Front: L C R, Side: L R, LFE
Sampling rate : 48.0 KHz
Bit depth : 16 bits
Compression mode : Lossy
Stream size : 237 MiB (17%)
Alignment : Split accross interleaves
Interleave, duration : 42 ms (1.00 video frame)
Interleave, preload duration : 500 ms
--


Последний раз редактировалось: Optimus Prime (2012-12-28 23:34), всего редактировалось 1 раз

Создавать темы 28-Дек-2012 18:47

[Профиль]  [ЛС] 

sayrax

Стаж: 5 лет 6 месяцев

Сообщений: 54

Симпатии: 2

Джа Хyй Лью :DDDD

Создавать темы 28-Дек-2012 18:59

[Профиль]  [ЛС] 

Fuk3r

Стаж: 5 лет 8 месяцев

Сообщений: 72

Симпатии: 12

Его бы в российские фильмы)

Создавать темы 28-Дек-2012 20:20

[Профиль]  [ЛС] 

Тахир

Стаж: 4 года 11 месяцев

Сообщений: 3

Он был бы звездой )))

Создавать темы 28-Дек-2012 20:45

[Профиль]  [ЛС] 

Stiph

Стаж: 5 лет 1 месяц

Сообщений: 14

Автор где вы? дайте скорест

Создавать темы 28-Дек-2012 22:03

[Профиль]  [ЛС] 

baxodir_A

Стаж: 7 лет 2 месяца

Сообщений: 154

Симпатии: 7

Полного источника не было: 1 час 28 минут
ИСТОЧНИК ТЫ ГДЕ?????


_________________
Подпись отключена за нарушение правил форума

Создавать темы 28-Дек-2012 22:23

[Профиль]  [ЛС] 

Optimus Prime ®

Стаж: 4 года 10 месяцев

Сообщений: 32

Симпатии: 4

извините свет отключили

Создавать темы 28-Дек-2012 22:32

[Профиль]  [ЛС] 

nigga22480

Стаж: 7 лет 4 месяца

Сообщений: 211

Симпатии: 13

рейтинг где?

Создавать темы 29-Дек-2012 11:29

[Профиль]  [ЛС] 

victor0778

Стаж: 6 лет 7 месяцев

Сообщений: 1670

Симпатии: 142

 

Создавать темы 29-Дек-2012 11:51

[Профиль]  [ЛС] 

yets

Стаж: 5 лет 11 месяцев

Сообщений: 34

Симпатии: 2

Как фильм, качать стоит?

Создавать темы 30-Дек-2012 07:45

[Профиль]  [ЛС] 

murodjon

Стаж: 6 лет 7 месяцев

Сообщений: 163

Симпатии: 10

Спасибо в списке )

Создавать темы 30-Дек-2012 17:34

[Профиль]  [ЛС] 

Jnec

Стаж: 4 года 11 месяцев

Сообщений: 165

Спасибо большое.

Создавать темы 18-Янв-2013 13:50

[Профиль]  [ЛС] 

Farrukh27

Стаж: 5 лет 4 месяца

Сообщений: 35

Симпатии: 6

Фильм классный! Спасибо автору.

Создавать темы 27-Янв-2013 12:21

[Профиль]  [ЛС] 
Показать сообщения:    
Ответить на тему

Текущее время: 23-Сен 21:39

Часовой пояс: UTC + 5



Вы не можете начинать темы
Вы не можете отвечать на сообщения
Вы не можете редактировать свои сообщения
Вы не можете удалять свои сообщения
Вы не можете голосовать в опросах
Вы не можете прикреплять файлы к сообщениям
Вы не можете скачивать файлы