Весёлые каникулы / Get the Gringo (Адриан Грюнберг) [2012 г., боевик, триллер, детектив, приключения, BDRip 720p]

Ответить на тему
 

DMiTRY ®

Стаж: 6 лет 4 месяца

Сообщений: 649

Симпатии: 28

Весёлые каникулы / Get the Gringo
Год выпуска: 2012
Страна: США
Жанр: боевик, триллер, детектив, приключения
Продолжительность: 01:36:00
Перевод: Профессиональный (полное дублирование)
Режиссер: Адриан Грюнберг
В ролях: Мэл Гибсон, Кевин Эрнандез, Долорес Эредия, Хесус Очоа, Дин Норрис, Петер Стормаре, Скотт Коэн, Боб Гантон, София Сисньега, Патрик Бошо
Описание: Лента расскажет о пойманном мексиканскими властями преступнике, заключенном в полную наркотиков и насилия тюрьму…
Качество: BDRip 720p
Формат: MKV
Видео кодек: H.264
Аудио кодек: AC3
Видео: 1280x534, 7604 kb/s
Аудио: 6 channels, 48000 Hz, 384 kb/s (русский-дублированный)

Meдиа Инфо

Весёлые каникулы [2012 BD-RIP 720p].mkv
Format : Matroska
Format version : Version 2
File size : 5.10 GiB
Duration : 1h 36mn
Overall bit rate : 7 604 Kbps
Encoded date : UTC 2012-07-06 06:33:50
Writing application : mkvmerge v5.5.0 ('Healer') built on Apr 6 2012 21:43:24
Writing library : libebml v1.2.3 + libmatroska v1.3.0
Video
ID : 1
Format : AVC
Format/Info : Advanced Video Codec
Format profile : [email protected]
Format settings, CABAC : Yes
Format settings, ReFrames : 12 frames
Codec ID : V_MPEG4/ISO/AVC
Duration : 1h 36mn
Bit rate : 5 700 Kbps
Width : 1 280 pixels
Height : 534 pixels
Display aspect ratio : 2.40:1
Frame rate mode : Constant
Frame rate : 23.976 fps
Color space : YUV
Chroma subsampling : 4:2:0
Bit depth : 8 bits
Scan type : Progressive
Bits/(Pixel*Frame) : 0.348
Stream size : 3.73 GiB (73%)
Writing library : x264 core 125 r2200 999b753
Encoding settings : cabac=1 / ref=12 / deblock=1:-3:-3 / analyse=0x3:0x113 / me=umh / subme=10 / psy=1 / psy_rd=1.15:0.00 / mixed_ref=1 / me_range=32 / chroma_me=1 / trellis=2 / 8x8dct=1 / cqm=0 / deadzone=21,11 / fast_pskip=0 / chroma_qp_offset=-2 / threads=18 / lookahead_threads=3 / sliced_threads=0 / nr=0 / decimate=0 / interlaced=0 / bluray_compat=0 / constrained_intra=0 / bframes=8 / b_pyramid=2 / b_adapt=2 / b_bias=0 / direct=3 / weightb=1 / open_gop=0 / weightp=2 / keyint=240 / keyint_min=24 / scenecut=40 / intra_refresh=0 / rc_lookahead=120 / rc=2pass / mbtree=1 / bitrate=5700 / ratetol=1.0 / qcomp=0.72 / qpmin=0 / qpmax=69 / qpstep=4 / cplxblur=20.0 / qblur=0.5 / ip_ratio=1.40 / aq=1:1.15
Language : English
Default : Yes
Forced : No
Audio #1
ID : 2
Format : AC-3
Format/Info : Audio Coding 3
Mode extension : CM (complete main)
Format settings, Endianness : Big
Codec ID : A_AC3
Duration : 1h 36mn
Bit rate mode : Constant
Bit rate : 384 Kbps
Channel(s) : 6 channels
Channel positions : Front: L C R, Side: L R, LFE
Sampling rate : 48.0 KHz
Bit depth : 16 bits
Compression mode : Lossy
Delay relative to video : 780ms
Stream size : 264 MiB (5%)
Language : Russian
Default : Yes
Forced : No
Audio #2
ID : 3
Format : DTS
Format/Info : Digital Theater Systems
Mode : 16
Format settings, Endianness : Big
Codec ID : A_DTS
Duration : 1h 36mn
Bit rate mode : Constant
Bit rate : 1 509 Kbps
Channel(s) : 6 channels
Channel positions : Front: L C R, Side: L R, LFE
Sampling rate : 48.0 KHz
Bit depth : 24 bits
Compression mode : Lossy
Stream size : 1.01 GiB (20%)
Language : English
Default : No
Forced : No
Text
ID : 4
Format : PGS
Muxing mode : zlib
Codec ID : S_HDMV/PGS
Codec ID/Info : The same subtitle format used on BDs/HD-DVDs
Language : English
Default : Yes
Forced : No
Menu
00:00:00.000 : en:00:00:00.000
00:06:04.781 : en:00:06:04.781
00:10:42.100 : en:00:10:42.100
00:13:47.577 : en:00:13:47.577
00:16:02.795 : en:00:16:02.795
00:18:40.745 : en:00:18:40.745
00:23:49.970 : en:00:23:49.970
00:26:29.463 : en:00:26:29.463
00:30:06.263 : en:00:30:06.263
00:35:37.594 : en:00:35:37.594
00:38:36.230 : en:00:38:36.230
00:40:50.698 : en:00:40:50.698
00:45:16.130 : en:00:45:16.130
00:51:05.479 : en:00:51:05.479
00:54:01.279 : en:00:54:01.279
00:57:31.197 : en:00:57:31.197
01:00:53.399 : en:01:00:53.399
01:05:44.273 : en:01:05:44.273
01:09:17.862 : en:01:09:17.862
01:13:33.158 : en:01:13:33.158
01:18:43.093 : en:01:18:43.093
01:23:20.704 : en:01:23:20.704
01:25:49.185 : en:01:25:49.185
01:28:19.377 : en:01:28:19.377

Скриншоты





Последний раз редактировалось: DMiTRY (2012-12-29 15:26), всего редактировалось 2 раз(а)

Создавать темы 29-Дек-2012 14:55

[Профиль]  [ЛС] 

KILKA

Стаж: 5 лет 2 месяца

Сообщений: 43

Симпатии: 1

качайте :D если раздача прекратится с утра встану опять просто могут свет вырубить


Последний раз редактировалось: KILKA (2012-12-30 01:53), всего редактировалось 1 раз

Создавать темы 30-Дек-2012 01:24

[Профиль]  [ЛС] 

KILKA

Стаж: 5 лет 2 месяца

Сообщений: 43

Симпатии: 1

ограничения по скорости нету

Создавать темы 30-Дек-2012 01:25

[Профиль]  [ЛС] 

tanuki

Стаж: 3 года 11 месяцев

Сообщений: 60

Симпатии: 3

Технически правильнее не "веселые каникулы" а "достать пиндоса"

Создавать темы 01-Дек-2013 07:01

[Профиль]  [ЛС] 
Показать сообщения:    
Ответить на тему

Текущее время: 21-Сен 12:06

Часовой пояс: UTC + 5



Вы не можете начинать темы
Вы не можете отвечать на сообщения
Вы не можете редактировать свои сообщения
Вы не можете удалять свои сообщения
Вы не можете голосовать в опросах
Вы не можете прикреплять файлы к сообщениям
Вы не можете скачивать файлы