Лузеры / The Losers (Сильвиан Уайт) [2010 г., Боевик, Приключения, Комедия, HDRip]

Ответить на тему
 

Zrachok ®

Стаж: 4 года 11 месяцев

Сообщений: 5

Лузеры / The Losers- Год выпуска: 2010
Страна: США
Жанр: Боевик, Приключения, Комедия
Продолжительность: 01:36:59
Перевод: Профессиональный (полное дублирование)
Режиссер: Сильвиан Уайт
В ролях: Зои Салдана, Идрис Эльба, Крис Эванс, Рей Эрнандес, Оскар Хаэнада, Питер Фрэнсис Джеймс, Холт МакКэллэни, Джеффри Дин Морган, Джейсон Патрик, Коламбус Шорт
Описание: Элитный отряд специального назначения отправляют в джунгли Боливии с задачей "найти и уничтожить". Но на месте выясняется, что команду — Клэя, Дженсена, Роуга, Пуча и Когара — подставили, и они попали под перекрестный огонь двух противоборствующих лагерей. Смертельное противостояние было спровоцировано изнутри могущественным врагом, о котором известно лишь его имя — Макс.
Решив сыграть на том, что они числятся погибшими, члены отряда уходят в глубокое подполье и составляют опасный план по восстановлению своей репутации и сведению счетов с предателем. К ним присоединяется загадочная Аиша — красавица-агент, работающая по заданию, но вполне способная внести коррективы в заданный сверху план. В перерывах между разборками друг с другом бойцам необходимо оставаться на шаг впереди Макса — беспощадного негодяя, который намерен ради собственной выгоды втянуть мир в новую мировую войну.
Качество: HDRip
Формат: AVI
Видео кодек: XviD
Аудио кодек: MP3
Видео: XviD build 50, 2673 kbps avg, 0.25 bit/pixel, 1024x432 Widescreen.
Аудио: 44.100 kHz, MPEG Layer 3, 2 ch, 128 Kbps

Скриншоты



-

Media Info

General
Complete name : D:\Загрузки\Лузеры.avi
Format : AVI
Format/Info : Audio Video Interleave
Format profile : OpenDML
File size : 1.90 GiB
Duration : 1h 36mn
Overall bit rate : 2 808 Kbps
Writing application : MEncoder SVN-r30881(20100311-gcc4.3.3)
Writing library : MPlayer
Video
ID : 0
Format : MPEG-4 Visual
Format profile : Advanced [email protected]
Format settings, BVOP : 3
Format settings, QPel : No
Format settings, GMC : No warppoints
Format settings, Matrix : Default (H.263)
Codec ID : XVID
Codec ID/Hint : XviD
Duration : 1h 36mn
Bit rate : 2 668 Kbps
Width : 1 024 pixels
Height : 432 pixels
Display aspect ratio : 2.40:1
Original display aspect ratio : 2.40:1
Frame rate : 23.976 fps
Color space : YUV
Chroma subsampling : 4:2:0
Bit depth : 8 bits
Scan type : Progressive
Compression mode : Lossy
Bits/(Pixel*Frame) : 0.252
Stream size : 1.81 GiB (95%)
Writing library : XviD 1.2.1 (UTC 2008-12-04)
Audio
ID : 1
Format : MPEG Audio
Format version : Version 1
Format profile : Layer 3
Mode : Joint stereo
Mode extension : MS Stereo
Codec ID : 55
Codec ID/Hint : MP3
Duration : 1h 36mn
Bit rate mode : Constant
Bit rate : 128 Kbps
Channel(s) : 2 channels
Sampling rate : 44.1 KHz
Compression mode : Lossy
Stream size : 88.8 MiB (5%)
Alignment : Aligned on interleaves
Interleave, duration : 26 ms (0.63 video frame)
Interleave, preload duration : 522 ms
Writing library : LAME3.98


Последний раз редактировалось: Zrachok (2012-12-30 01:30), всего редактировалось 2 раз(а)

Создавать темы 29-Дек-2012 16:18

[Профиль]  [ЛС] 

victor0778

Стаж: 6 лет 10 месяцев

Сообщений: 1670

Симпатии: 142

Zrachok, медиа инфо выложите

Создавать темы 29-Дек-2012 21:16

[Профиль]  [ЛС] 

Zrachok ®

Стаж: 4 года 11 месяцев

Сообщений: 5

victor0778, Пожалуйста уточните, Ещё какая информация должна быть?

Создавать темы 30-Дек-2012 00:43

[Профиль]  [ЛС] 

McFLY

Стаж: 5 лет 9 месяцев

Сообщений: 658

Симпатии: 22

- Лузеры - оригинальный комикс по которому и был снят сей фильм

Создавать темы 30-Дек-2012 00:55

[Профиль]  [ЛС] 

Zrachok ®

Стаж: 4 года 11 месяцев

Сообщений: 5

McFLY, Америка страна комиксов.

Создавать темы 30-Дек-2012 01:14

[Профиль]  [ЛС] 

victor0778

Стаж: 6 лет 10 месяцев

Сообщений: 1670

Симпатии: 142

Zrachok, Медиа инфо для проверки тех. данных релиза

Создавать темы 30-Дек-2012 01:18

[Профиль]  [ЛС] 

ilhom368

Стаж: 3 года 11 месяцев

Сообщений: 5

хороший фильм

Создавать темы 15-Дек-2013 12:45

[Профиль]  [ЛС] 

ilhom368

Стаж: 3 года 11 месяцев

Сообщений: 5

Zrachok, медиа инфо выложите

Создавать темы 16-Дек-2013 09:34

[Профиль]  [ЛС] 

ilhom368

Стаж: 3 года 11 месяцев

Сообщений: 5

Zrachok, Медиа инфо для проверки тех. данных релиза
Zrachok, Медиа инфо для проверки тех. данных релиза
Zrachok, Медиа инфо для проверки тех. данных релиза

Создавать темы 16-Дек-2013 09:34

[Профиль]  [ЛС] 
Показать сообщения:    
Ответить на тему

Текущее время: 11-Дек 09:04

Часовой пояс: UTC + 5



Вы не можете начинать темы
Вы не можете отвечать на сообщения
Вы не можете редактировать свои сообщения
Вы не можете удалять свои сообщения
Вы не можете голосовать в опросах
Вы не можете прикреплять файлы к сообщениям
Вы не можете скачивать файлы