Рожденный четвертого июля / Born on the Fourth of July (Оливер Стоун) [1989 г., драма, военный, биография, BDRip]

Ответить на тему
 

able_1989 ®

Стаж: 4 года 9 месяцев

Сообщений: 34

Симпатии: 2

Рожденный четвертого июля / Born on the Fourth of July
Год выпуска: 1989
Страна: США
Жанр: драма, военный, биография
Продолжительность: 02:24:08
Перевод: Профессиональный (полное дублирование)
Режиссер: Оливер Стоун
В ролях: Том Круз, Рэймонд Дж. Бэрри, Каролина Кава, Джош Эванс, Джами Талисман, Энн Бобби, Саманта Ларкин, Том Беренджер, Фрэнк Уэли, Джерри Ливайн
Описание: Фильм, основанный на реальных фактах, рассказывает историю жизни ветерана по имени Рон Ковик. Наивным школьником он записывается добровольцем в армию и, пройдя через ад вьетнамской войны, возвращается домой парализованным калекой. Этот мужественный человек посвящает свою жизнь борьбе с самым страшным врагом человечества — войной.
Качество: BDRip
Формат: AVI
Видео кодек: XviD
Аудио кодек: AC3
Видео: 720х304 (2.35:1), 23.976 fps, 1773 Kbps
Аудио: 48.0 KHz, AC-3, 384 Kbps (6 ch)

Скриншоты

Медиа инфо

General
Complete name : C:\Film's\Рожденый четвертого июля.avi
Format : AVI
Format/Info : Audio Video Interleave
Format profile : OpenDML
File size : 2.18 GiB
Duration : 2h 24mn
Overall bit rate : 2 169 Kbps
Movie name : Born on the Fourth of July (1989) BDRip
Director : DaniLch
Genre : Drama/War/Biography
Writing application : VirtualDubMod 1.5.10.2 (build 2542/release)
Copyright : http://hqclub.net/
Comment : R.G. HQCLUB
Video
ID : 0
Format : MPEG-4 Visual
Format profile : Advanced [email protected]
Format settings, BVOP : Yes
Format settings, QPel : No
Format settings, GMC : No warppoints
Format settings, Matrix : Custom
Codec ID : XVID
Codec ID/Hint : XviD
Duration : 2h 24mn
Bit rate : 1 773 Kbps
Width : 720 pixels
Height : 304 pixels
Display aspect ratio : 2.35:1
Frame rate : 23.976 fps
Color space : YUV
Chroma subsampling : 4:2:0
Bit depth : 8 bits
Scan type : Progressive
Bits/(Pixel*Frame) : 0.338
Stream size : 1.78 GiB (82%)
Writing library : XviD 64
Audio
ID : 1
Format : AC-3
Format/Info : Audio Coding 3
Mode extension : CM (complete main)
Codec ID : 2000
Duration : 2h 24mn
Bit rate mode : Constant
Bit rate : 384 Kbps
Channel(s) : 6 channels
Channel positions : Front: L C R, Side: L R, LFE
Sampling rate : 48.0 KHz
Stream size : 396 MiB (18%)
Alignment : Split accross interleaves
Interleave, duration : 42 ms (1.00 video frame)
Interleave, preload duration : 500 ms


Последний раз редактировалось: able_1989 (2013-01-05 12:09), всего редактировалось 4 раз(а)

Создавать темы 30-Дек-2012 15:36

[Профиль]  [ЛС] 

able_1989 ®

Стаж: 4 года 9 месяцев

Сообщений: 34

Симпатии: 2

народ сорри что не постоянно на раздаче стою, комп гонит выключается частенько...

Создавать темы 03-Янв-2013 15:38

[Профиль]  [ЛС] 

Kakcam

Стаж: 6 лет 8 месяцев

Сообщений: 137

Симпатии: 7

встаньте на раздачу

Создавать темы 03-Июл-2014 18:18

[Профиль]  [ЛС] 
Показать сообщения:    
Ответить на тему

Текущее время: 19-Авг 20:07

Часовой пояс: UTC + 5



Вы не можете начинать темы
Вы не можете отвечать на сообщения
Вы не можете редактировать свои сообщения
Вы не можете удалять свои сообщения
Вы не можете голосовать в опросах
Вы не можете прикреплять файлы к сообщениям
Вы не можете скачивать файлы