Песочный человек / Der Sandmann (Питер Луизи / Peter Luisi) [2011, Фэнтези, драма, комедия, DVDRip-AVC] MVO |Лицензия|

Ответить на тему
 

inviz ®

Стаж: 5 лет 11 месяцев

Сообщений: 153

Симпатии: 6

Песочный человек / Der Sandmann - Год выпуска: 2011
Страна: Швейцария / Spotlight Media Production
Жанр: Фэнтези, драма, комедия
Продолжительность: 01:27:27
Перевод: Профессиональный (многоголосый закадровый) лицензия
Режиссер: Питер Луизи / Peter Luisi
В ролях: Фабиан Крюгер, Ирен Брюггер, Бит Шлэттер, Флорин Элена Деплазес, Каспар Вайсс, Зиги Терпоортен, Мишель Гамменталер, Урс Юккер, Тис Мосер, Макс Рюдлингер-Описание: Однажды утром Бенно находит в своей постели песок. Сперва он решает не обращать на это внимание. Но количество песка день ото дня увеличивается и Бенно буквально начинает чувствовать, что его время начинает бежать быстрее. У него не остается выбора и он вынужден обратиться за помощью к Сандре, которая содержит небольшую кофейню прямо под его квартирой. Несмотря на то, что Бенно страстно ненавидит ее, он начинает мечтать о ней каждую ночь. Но что могут поделать Сандра и мечты о ней с песком.-Качество: DVDRip-AVC [Pesochnyj chelovek 2011 P DVD9 IRONCLUB]
Формат: MKV
Видео кодек: H.264
Аудио кодек: AC3
Видео: H.264, 720x576 (16:9), 25,000 fps, 1943 Кbps, 0.187 bit/pixel
Аудио: 48 kHz, AC3 Dolby Digital, 3/2 (L,C,R,l,r) + LFE ch, ~448.00 kbps avg

MediaInfo

General
Unique ID : 184824824858862376220092257156047584880 (0x8B0BF76A53DFD64E86D4FA5B89243E70)
Complete name : Pesochnyj.Chelovek.2011.P.DVDRip.x264.potroks.mkv
Format : Matroska
Format version : Version 2
File size : 1.46 GiB
Duration : 1h 27mn
Overall bit rate : 2 392 Kbps
Movie name : -=POTROKS=-
Encoded date : UTC 2012-12-30 03:58:04
Writing application : mkvmerge v5.7.0 ('The Whirlwind') built on Jul 8 2012 20:08:51
Writing library : libebml v1.2.3 + libmatroska v1.3.0
Video
ID : 1
Format : AVC
Format/Info : Advanced Video Codec
Format profile : High@L4.1
Format settings, CABAC : Yes
Format settings, ReFrames : 13 frames
Codec ID : V_MPEG4/ISO/AVC
Duration : 1h 27mn
Bit rate : 1 943 Kbps
Width : 720 pixels
Height : 576 pixels
Display aspect ratio : 16:9
Frame rate mode : Constant
Frame rate : 25.000 fps
Standard : PAL
Color space : YUV
Chroma subsampling : 4:2:0
Bit depth : 8 bits
Scan type : Progressive
Bits/(Pixel*Frame) : 0.187
Stream size : 1.16 GiB (79%)
Writing library : x264 core 125 r2208 d9d2288
Encoding settings : cabac=1 / ref=13 / deblock=1:-2:-2 / analyse=0x3:0x133 / me=umh / subme=11 / psy=1 / psy_rd=1.10:0.00 / mixed_ref=1 / me_range=48 / chroma_me=1 / trellis=2 / 8x8dct=1 / cqm=0 / deadzone=21,11 / fast_pskip=0 / chroma_qp_offset=-2 / threads=6 / lookahead_threads=1 / sliced_threads=0 / nr=0 / decimate=1 / interlaced=0 / bluray_compat=0 / constrained_intra=0 / bframes=14 / b_pyramid=2 / b_adapt=2 / b_bias=0 / direct=3 / weightb=1 / open_gop=0 / weightp=2 / keyint=250 / keyint_min=25 / scenecut=40 / intra_refresh=0 / rc_lookahead=150 / rc=2pass / mbtree=1 / bitrate=1943 / ratetol=1.0 / qcomp=0.70 / qpmin=0 / qpmax=69 / qpstep=4 / cplxblur=20.0 / qblur=0.5 / vbv_maxrate=20000 / vbv_bufsize=25000 / nal_hrd=none / ip_ratio=1.35 / aq=1:0.70
Language : English
Default : Yes
Forced : No
Audio
ID : 2
Format : AC-3
Format/Info : Audio Coding 3
Mode extension : CM (complete main)
Format settings, Endianness : Big
Codec ID : A_AC3
Duration : 1h 27mn
Bit rate mode : Constant
Bit rate : 448 Kbps
Channel(s) : 6 channels
Channel positions : Front: L C R, Side: L R, LFE
Sampling rate : 48.0 KHz
Bit depth : 16 bits
Compression mode : Lossy
Stream size : 280 MiB (19%)
Title : MVO | DD 5.1 @ 448 kbps
Language : Russian
Default : Yes
Forced : Yes

Скриншоты





Последний раз редактировалось: inviz (2013-01-01 14:25), всего редактировалось 2 раз(а)

Создавать темы 01-Янв-2013 13:43

[Профиль]  [ЛС] 

baxa181089

Стаж: 4 года 8 месяцев

Сообщений: 21

Симпатии: 1

ДАйте раздачу

Создавать темы 10-Фев-2013 12:12

[Профиль]  [ЛС] 
Показать сообщения:    
Ответить на тему

Текущее время: 23-Окт 09:31

Часовой пояс: UTC + 5



Вы не можете начинать темы
Вы не можете отвечать на сообщения
Вы не можете редактировать свои сообщения
Вы не можете удалять свои сообщения
Вы не можете голосовать в опросах
Вы не можете прикреплять файлы к сообщениям
Вы не можете скачивать файлы