Адвокат дьявола / The Devil's Advocate (Тейлор Хекфорд) [1997 г., драма, триллер, BDRip]

Ответить на тему
 

able_1989 ®

Стаж: 5 лет 1 месяц

Сообщений: 34

Симпатии: 2

Адвокат дьявола / The Devil's Advocate
Год выпуска: 1997
Страна: Германия, США
Жанр: драма, триллер
Продолжительность: 02:20:33
Перевод: Профессиональный (полное дублирование)
Режиссер: Тейлор Хекфорд
В ролях: Киану Ривз, Аль Пачино, Шарлиз Терон, Джеффри Джонс, Джудит Айви, Конни Нильсен, Тамара Туни, Дебра Монк, Лаура Харрингтон, Делрой Линдо
Описание: В Нью-Йорк по приглашению главы крупного юридического концерна прибывает Кевин Ломакс, молодой адвокат. До этого он был известен тем, что защищал исключительно негодяев и притом не проиграл не одного процесса. На новом месте работы он вполне счастлив, он живет в роскошной квартире с любящей женой, его окружают интересные люди.
Но вскоре ситуация неуловимо меняется, происходят странные и зловещие события: внезапно погибает один из его коллег, затем кончает самоубийством его жена. Кевин, догадываясь, в чем тут дело, приходит к шефу концерна Джону Милтону… Последний же имеет еще и другое имя — он сам Сатана, и он намерен объяснить молодому человеку, зачем его пригласили в Нью-Йорк…
«У зла свой путь к победе»
Качество: BDRip
Формат: MKV
Видео кодек: AVC
Аудио кодек: AC3
Видео: 704x304, (2.35:1), 1316 Kbps, 25.000 fps
Аудио#1: AC-3, 384 Kbps, 48.0 KHz, 6 channels, (русский)
Аудио#2: AC-3, 384 Kbps, 48.0 KHz, 6 channels, (английский)

Скриншоты

MediaInfo

Video
ID : 1
Format : AVC
Format/Info : Advanced Video Codec
Format profile : [email protected]
Format settings, CABAC : Yes
Format settings, ReFrames : 1 frame
Muxing mode : Container [email protected]
Codec ID : V_MPEG4/ISO/AVC
Duration : 2h 20mn
Bit rate : 1 316 Kbps
Width : 704 pixels
Height : 304 pixels
Display aspect ratio : 2.35:1
Frame rate : 25.000 fps
Color space : YUV
Chroma subsampling : 4:2:0
Bit depth : 8 bits
Scan type : Progressive
Bits/(Pixel*Frame) : 0.246
Stream size : 1.25 GiB (61%)
Writing library : x264 core 61 r957M 7ce0f2c
Encoding settings : cabac=1 / ref=1 / deblock=1:0:0 / analyse=0x1:0x111 / me=hex / subme=6 / psy_rd=1.0:0.0 / brdo=0 / mixed_ref=0 / me_range=16 / chroma_me=1 / trellis=0 / 8x8dct=0 / cqm=0 / deadzone=21,11 / chroma_qp_offset=-2 / threads=3 / nr=0 / decimate=1 / mbaff=0 / bframes=0 / keyint=250 / keyint_min=25 / scenecut=40(pre) / rc=2pass / bitrate=1316 / ratetol=1.0 / qcomp=1.00 / qpmin=10 / qpmax=51 / qpstep=4 / cplxblur=20.0 / qblur=0.5 / ip_ratio=1.40 / aq=2:1.00
Audio #1
ID : 2
Format : AC-3
Format/Info : Audio Coding 3
Mode extension : CM (complete main)
Codec ID : A_AC3
Duration : 2h 20mn
Bit rate mode : Constant
Bit rate : 384 Kbps
Channel(s) : 6 channels
Channel positions : Front: L C R, Side: L R, LFE
Sampling rate : 48.0 KHz
Stream size : 386 MiB (18%)
Language : Russian
Audio #2
ID : 3
Format : AC-3
Format/Info : Audio Coding 3
Mode extension : CM (complete main)
Codec ID : A_AC3
Duration : 2h 20mn
Bit rate mode : Constant
Bit rate : 384 Kbps
Channel(s) : 6 channels
Channel positions : Front: L C R, Side: L R, LFE
Sampling rate : 48.0 KHz
Stream size : 386 MiB (18%)


Последний раз редактировалось: able_1989 (2013-02-16 22:00), всего редактировалось 13 раз(а)

Создавать темы 02-Янв-2013 16:29

[Профиль]  [ЛС] 

victor0778

Стаж: 6 лет 10 месяцев

Сообщений: 1670

Симпатии: 142

able_1989, скриншоты по размерам залейте 704x304

Создавать темы 02-Янв-2013 16:54

[Профиль]  [ЛС] 

able_1989 ®

Стаж: 5 лет 1 месяц

Сообщений: 34

Симпатии: 2

Завтра с 10 утра встану на раздачу!)

Создавать темы 02-Янв-2013 22:13

[Профиль]  [ЛС] 

666luckyman13

Стаж: 5 лет 11 месяцев

Сообщений: 24

Дорожка английская есть ?

Создавать темы 02-Янв-2013 23:31

[Профиль]  [ЛС] 

Asadovdiyor

Стаж: 5 лет 11 месяцев

Сообщений: 192

УУУХ как раз искал этот фильм спс...

Создавать темы 02-Янв-2013 23:37

[Профиль]  [ЛС] 

victor0778

Стаж: 6 лет 10 месяцев

Сообщений: 1670

Симпатии: 142

Дорожка английская есть ?
да

Создавать темы 02-Янв-2013 23:53

[Профиль]  [ЛС] 

able_1989 ®

Стаж: 5 лет 1 месяц

Сообщений: 34

Симпатии: 2

народ сорри что не постоянно на раздаче стою, комп гонит выключается частенько!(

Создавать темы 03-Янв-2013 15:37

[Профиль]  [ЛС] 

KuZmA

Стаж: 6 лет 10 месяцев

Сообщений: 12

ya ne smogu pereklyuchitsa na angl dorojku kto nit pomogite)

Создавать темы 08-Фев-2013 14:49

[Профиль]  [ЛС] 

able_1989 ®

Стаж: 5 лет 1 месяц

Сообщений: 34

Симпатии: 2

ya ne smogu pereklyuchitsa na angl dorojku kto nit pomogite)
Кузьма? ты л2рояль играл?

Создавать темы 08-Фев-2013 21:03

[Профиль]  [ЛС] 

able_1989 ®

Стаж: 5 лет 1 месяц

Сообщений: 34

Симпатии: 2

. . . .

Создавать темы 11-Фев-2013 19:57

[Профиль]  [ЛС] 

Tolik4523

Стаж: 5 лет 10 месяцев

Сообщений: 271

Симпатии: 27

Что за дела! Я этот фильм уже перестал искать как вдруг зашёл в HD-AVC и опа он здесь.
able_1989, Огромное тебе СПАСИБО!!! Вот только до завтра докачаю 17 гиговый
фильм и ухвачусь зубами за этот супер-релиз.

Создавать темы 17-Фев-2013 19:20

[Профиль]  [ЛС] 

able_1989 ®

Стаж: 5 лет 1 месяц

Сообщений: 34

Симпатии: 2

Что за дела! Я этот фильм уже перестал искать как вдруг зашёл в HD-AVC и опа он здесь.
able_1989, Огромное тебе СПАСИБО!!! Вот только до завтра докачаю 17 гиговый
фильм и ухвачусь зубами за этот супер-релиз.
ок ок!))))

Создавать темы 20-Фев-2013 13:38

[Профиль]  [ЛС] 

alivalicom

Стаж: 5 лет 7 месяцев

Сообщений: 24

уминая ни качает даете скорости

Создавать темы 28-Мар-2013 22:23

[Профиль]  [ЛС] 

alivalicom

Стаж: 5 лет 7 месяцев

Сообщений: 24

скорости даете

Создавать темы 29-Мар-2013 14:13

[Профиль]  [ЛС] 

vertical

Стаж: 3 года 11 месяцев

Сообщений: 38

Симпатии: 5

РАЗДАЧУ ПЛЗ)

Создавать темы 01-Апр-2015 19:35

[Профиль]  [ЛС] 
Показать сообщения:    
Ответить на тему

Текущее время: 15-Дек 19:09

Часовой пояс: UTC + 5



Вы не можете начинать темы
Вы не можете отвечать на сообщения
Вы не можете редактировать свои сообщения
Вы не можете удалять свои сообщения
Вы не можете голосовать в опросах
Вы не можете прикреплять файлы к сообщениям
Вы не можете скачивать файлы