Золотой Компас / The Golden Compass (Крис Вайц) [2007 г., фэнтези ,приключения ,семейный, BDRip]

Ответить на тему
 

aziz2725272 ®

Стаж: 4 года 11 месяцев

Сообщений: 158

Симпатии: 6

Золотой Компас / The Golden Compass Год выпуска: 2007
Страна: США, Великобритания
Жанр: фэнтези ,приключения ,семейный
Продолжительность: 01:53:17
Перевод: Профессиональный (многоголосый, закадровый)

Режиссер: Крис Вайц
В ролях: Николь Кидман, Дэниэл Крэйг, Дакота Блю Ричардс, Бен Уокер, Фредди Хаймор, Иэн МакКеллен, Ева Грин, Джим Картер, Том Кортни, Иэн МакШейн
Описание: Бюджет: $180 000 000
Сборы в США: $70 107 728
Сборы в мире: + $302 127 136 = $372 234 864
Сборы в России: $8 096 945
Премьера (мир): 27 ноября 2007
Премьера (РФ): 6 декабря 2007, «Каро-Премьер»
Двенадцатилетняя Лира отправляется в удивительное путешествие к Северному Полюсу, чтобы спасти своего похищенного друга. В помощь к девочке приходят северные ведьмы под предводительством прекрасной Серафины Пеккала и огромный бронированный медведь. На пути их стоят зловещая Миссис Коултер и армия её монстров.
New Line Cinema, Ingenious Media, Depth of Field, Rhythm & Hues, Scholastic Productions
IMDB 6.2/10 58,612 votes
Кинопоиск 6.575 (13966)

Качество: BDRip
Формат: MKV
Видео кодек: H.264
Аудио кодек: AC3
Видео: H.264, 1920x800, 5140 кбит/с
Аудио: 48 kHz, AC-3, 6 ch, 384 kbps

MediaInfo

Полное имя : The.Golden.Compass.2007.BDRip.1080p.Rus.mkv
Формат : Matroska
Версия формата : Version 2
Размер файла : 4,37 Гбайт
Продолжительность : 1 ч. 53 м.
Общий поток : 5524 Кбит/сек
Дата кодирования : UTC 2011-02-12 10:33:30
Программа кодирования : mkvmerge v4.0.0 ('The Stars were mine') сборка от Jun 6 2010 16:18:42
Библиотека кодирования : libebml v1.0.0 + libmatroska v1.0.0
Видео
Идентификатор : 1
Формат : AVC
Формат/Информация : Advanced Video Codec
Профиль формата : [email protected]
Параметр CABAC формата : Да
Параметр ReFrames формата : 4 кадра
Идентификатор кодека : V_MPEG4/ISO/AVC
Продолжительность : 1 ч. 53 м.
Битрейт : 5140 Кбит/сек
Ширина : 1920 пикселей
Высота : 800 пикселей
Соотношение сторон : 2,40:1
Режим частоты кадров : Постоянный
Частота кадров : 23,976 кадра/сек
Цветовое пространство : YUV
Субдискретизация насыщенности : 4:2:0
Битовая глубина : 8 бит
Тип развёртки : Прогрессивная
Бит/(Пиксели*Кадры) : 0.140
Размер потока : 3,98 Гбайт (91%)
Библиотека кодирования : x264 core 114 r1900 60ef1f8
Настройки программы : cabac=1 / ref=5 / deblock=1:-1:-1 / analyse=0x3:0x133 / me=umh / subme=9 / psy=1 / psy_rd=1.00:0.00 / mixed_ref=1 / me_range=24 / chroma_me=1 / trellis=1 / 8x8dct=1 / cqm=0 / deadzone=21,11 / fast_pskip=0 / chroma_qp_offset=-2 / threads=12 / sliced_threads=0 / nr=0 / decimate=1 / interlaced=0 / constrained_intra=0 / bframes=5 / b_pyramid=1 / b_adapt=2 / b_bias=0 / direct=3 / weightb=1 / open_gop=0 / weightp=2 / keyint=250 / keyint_min=23 / scenecut=40 / intra_refresh=0 / rc_lookahead=60 / rc=2pass / mbtree=1 / bitrate=5140 / ratetol=1.0 / qcomp=0.60 / qpmin=0 / qpmax=69 / qpstep=4 / cplxblur=20.0 / qblur=0.5 / ip_ratio=1.40 / aq=1:1.00
Язык : English
Default : Да
Forced : Нет
Аудио
Идентификатор : 2
Формат : AC-3
Формат/Информация : Audio Coding 3
Расширение режима : CM (complete main)
Параметр Endianness формата : Big
Идентификатор кодека : A_AC3
Продолжительность : 1 ч. 53 м.
Вид битрейта : Постоянный
Битрейт : 384 Кбит/сек
Каналы : 6 каналов
Расположение каналов : Front: L C R, Side: L R, LFE
Частота : 48,0 КГц
Битовая глубина : 16 бит
Метод сжатия : С потерями
Размер потока : 311 Мбайт (7%)
Язык : Russian
Default : Да
Forced : Нет

Скриншоты





Последний раз редактировалось: aziz2725272 (2013-01-02 20:53), всего редактировалось 1 раз

Создавать темы 02-Янв-2013 20:42

[Профиль]  [ЛС] 

victor0778

Стаж: 6 лет 7 месяцев

Сообщений: 1670

Симпатии: 142

aziz2725272, только не вьеду, зачем просто картинки IMDB и КиноПоиска раз они не несут в себе никакой информации bn

Создавать темы 02-Янв-2013 20:57

[Профиль]  [ЛС] 

aziz2725272 ®

Стаж: 4 года 11 месяцев

Сообщений: 158

Симпатии: 6

http://rutracker.org/forum/viewtopic.php?t=4139521 здесь так украшена СПС

Создавать темы 02-Янв-2013 21:07

[Профиль]  [ЛС] 

shax90

Стаж: 6 лет 11 месяцев

Сообщений: 12

Симпатии: 3

дайте скачать ребята pls

Создавать темы 23-Янв-2013 21:25

[Профиль]  [ЛС] 

shax90

Стаж: 6 лет 11 месяцев

Сообщений: 12

Симпатии: 3

Встаньте a на раздачу

Создавать темы 24-Янв-2013 20:40

[Профиль]  [ЛС] 

shax90

Стаж: 6 лет 11 месяцев

Сообщений: 12

Симпатии: 3

вот не понимаю всвят кино а раздават не хотят bz

Создавать темы 30-Янв-2013 00:15

[Профиль]  [ЛС] 

bbk

Стаж: 6 лет 10 месяцев

Сообщений: 435

Симпатии: 479

вот не понимаю всвят кино а раздават не хотят bz
раздают нормально. может быть кое-кто качать не хотят bx поставил на закачку сегодня уже почти скачалось

Скриншоты

Создавать темы 30-Янв-2013 22:50

[Профиль]  [ЛС] 

bbk

Стаж: 6 лет 10 месяцев

Сообщений: 435

Симпатии: 479

Перевод: Профессиональный (многоголосый, закадровый)
исправьте на дубляж, ради закадрового качал зря

Создавать темы 31-Янв-2013 12:59

[Профиль]  [ЛС] 

aziz2725272 ®

Стаж: 4 года 11 месяцев

Сообщений: 158

Симпатии: 6

Перевод: Профессиональный (многоголосый, закадровый) также есть

Создавать темы 06-Фев-2013 11:56

[Профиль]  [ЛС] 

bbk

Стаж: 6 лет 10 месяцев

Сообщений: 435

Симпатии: 479

Перевод: Профессиональный (многоголосый, закадровый) также есть
а как его выбрать? не нашел. одна АС3 аудиодорожка c полным дублированным переводом и все
Movies\The.Golden.Compass.2007.BDRip.1080p.Rus.mkv
Format : Matroska
Format version : Version 2
File size : 4.37 GiB
Duration : 1h 53mn
Overall bit rate : 5 524 Kbps
Encoded date : UTC 2011-02-12 10:33:30
Writing application : mkvmerge v4.0.0 ('The Stars were mine') сборка от Jun 6 2010 16:18:42
Writing library : libebml v1.0.0 + libmatroska v1.0.0
Video #1
ID : 1
Format : AVC
Format/Info : Advanced Video Codec
Format profile : [email protected]
Format settings, CABAC : Yes
Format settings, ReFrames : 4 frames
Codec ID : V_MPEG4/ISO/AVC
Duration : 1h 53mn
Bit rate : 5 140 Kbps
Width : 1 920 pixels
Height : 800 pixels
Display aspect ratio : 2.40:1
Frame rate mode : Constant
Frame rate : 23.976 fps
Color space : YUV
Chroma subsampling : 4:2:0
Bit depth : 8 bits
Scan type : Progressive
Bits/(Pixel*Frame) : 0.140
Stream size : 3.98 GiB (91%)
Writing library : x264 core 114 r1900 60ef1f8
Encoding settings : cabac=1 / ref=5 / deblock=1:-1:-1 / analyse=0x3:0x133 / me=umh / subme=9 / psy=1 / psy_rd=1.00:0.00 / mixed_ref=1 / me_range=24 / chroma_me=1 / trellis=1 / 8x8dct=1 / cqm=0 / deadzone=21,11 / fast_pskip=0 / chroma_qp_offset=-2 / threads=12 / sliced_threads=0 / nr=0 / decimate=1 / interlaced=0 / constrained_intra=0 / bframes=5 / b_pyramid=1 / b_adapt=2 / b_bias=0 / direct=3 / weightb=1 / open_gop=0 / weightp=2 / keyint=250 / keyint_min=23 / scenecut=40 / intra_refresh=0 / rc_lookahead=60 / rc=2pass / mbtree=1 / bitrate=5140 / ratetol=1.0 / qcomp=0.60 / qpmin=0 / qpmax=69 / qpstep=4 / cplxblur=20.0 / qblur=0.5 / ip_ratio=1.40 / aq=1:1.00
Language : English
Default : Yes
Forced : No

Audio #2
ID : 2
Format : AC-3
Format/Info : Audio Coding 3
Mode extension : CM (complete main)
Format settings, Endianness : Big
Codec ID : A_AC3
Duration : 1h 53mn
Bit rate mode : Constant
Bit rate : 384 Kbps
Channel(s) : 6 channels
Channel positions : Front: L C R, Side: L R, LFE
Sampling rate : 48.0 KHz
Bit depth : 16 bits
Compression mode : Lossy
Stream size : 311 MiB (7%)
Language : Russian
Default : Yes
Forced : No

Создавать темы 07-Фев-2013 19:46

[Профиль]  [ЛС] 
Показать сообщения:    
Ответить на тему

Текущее время: 21-Сен 06:39

Часовой пояс: UTC + 5



Вы не можете начинать темы
Вы не можете отвечать на сообщения
Вы не можете редактировать свои сообщения
Вы не можете удалять свои сообщения
Вы не можете голосовать в опросах
Вы не можете прикреплять файлы к сообщениям
Вы не можете скачивать файлы