Гренадер - улыбающийся воин / Grenadier - The Smiling Warrior (Кодзина Хироси) [TV] [12 из 12] [Без хардсаба] [RUS(int)] [2004 г., приключения, комедия, этти, DVDRip]

Ответить на тему
 

AleXandR333 ®

Стаж: 6 лет 5 месяцев

Сообщений: 6

Симпатии: 1

Гренадер - улыбающийся воин / Grenadier - The Smiling Warrior
Год выпуска: 2004
Страна: Япония
Жанр: приключения, комедия, этти
Продолжительность: ТВ (12 эп.), 25 мин.
Перевод: Профессиональный (многоголосый, закадровый) от MC Entertainment
Режиссер: Кодзина Хироси
Описание: Идет Великая Японская Гражданская Война. Благородный самурай Ядзиро Торадзима попадает в окружение вражеских воинов, но ему на помощь приходит жизнерадостная Русюна Тэндо: девушка спасает мечника при помощи чарующей улыбки и крупнокалиберного револьвера! Миссия Русюны заключается в том, чтобы прекратить братоубийственную войну. Заручившись поддержкой Ядзиро, она выступает против новых серьезных противников...-
Средний балл: 7.6 из 10
Место в рейтинге: 1509 из 2249
Проголосовало: 489 чел.-

Названия серий (на английском)

01. The Smiling Flash Warrior
02. Rushuna's A Target
03. Enlightenment of a demon
04. The town with no smile
05. Exploding! Kensousen * Kurenai Touka
06. Balloon User. Mikan's Revenge
07. Well Then, To Tento
08. An Enemy of Memories Aizen Teppa
09. Wind Flower, When it Dances
10. Entering Tento
11. The Showdown With Tenshi
12. Things Gained From Travels

Названия серий (на русском)

1. Улыбающийся воин
2. Охота на Русюну
3. Демонический огонь
4. Город, где нет улыбок
5. Взрыв! Kensousen * Kurenai Touka
6. Месть Микан - повелительницы надувных шаров
7. По дороге в тенто
8. Враг из воспоминаний - Аидзен Теппа
9. Когда цветы танцуют на ветру
10. Столица
11. Поединок с Тенси
12. То, что мы поняли во время путешествия
Качество: DVDRip
Формат: AVI
Видео кодек: DivX, 640х368, 845Kbps
Аудио кодек: MP3, 128Kbps

Доп. информация

General
Complete name : ........\Grenadier\01. Grenader - The Smiling Flash Warrior.avi
Format : AVI
Format/Info : Audio Video Interleave
File size : 170 MiB
Duration : 24mn 14s
Overall bit rate : 981 Kbps
Video #0
ID : 0
Format : MPEG-4 Visual
Format settings, BVOP : 1
Format settings, QPel : No
Format settings, GMC : No warppoints
Format settings, Matrix : Default (H.263)
Muxing mode : Packed bitstream
Codec ID : DX50
Codec ID/Hint : DivX 5
Duration : 24mn 14s
Bit rate : 846 Kbps
Width : 640 pixels
Height : 368 pixels
Display aspect ratio : 16:9
Frame rate : 23.976 fps
Color space : YUV
Chroma subsampling : 4:2:0
Bit depth : 8 bits
Scan type : Progressive
Compression mode : Lossy
Bits/(Pixel*Frame) : 0.150
Stream size : 147 MiB (86%)
Writing library : DivX 6.7.0 (UTC 2007-09-20)
Audio #1
ID : 1
Format : MPEG Audio
Format version : Version 1
Format profile : Layer 3
Mode : Joint stereo
Mode extension : MS Stereo
Codec ID : 55
Codec ID/Hint : MP3
Duration : 24mn 13s
Bit rate mode : Constant
Bit rate : 128 Kbps
Channel(s) : 2 channels
Sampling rate : 48.0 KHz
Compression mode : Lossy
Stream size : 22.2 MiB (13%)
Alignment : Aligned on interleaves
Interleave, duration : 83 ms (2.00 video frames)
Interleave, preload duration : 504 ms
Writing library : LAME3.97
Encoding settings : -m j -V 4 -q 2 -lowpass 17 -b 128
Language : 5 / @5 / Russian

Скриншоты







Последний раз редактировалось: AleXandR333 (2013-01-03 08:17), всего редактировалось 1 раз

Создавать темы 02-Янв-2013 22:53

[Профиль]  [ЛС] 

Азиз87

Стаж: 4 года 11 месяцев

Сообщений: 752

Симпатии: 143

Чем то напоминает http://tas-ix.net/viewtopic.php?t=44374 только тут пистолеты+магия+роботы и СИСЬКИ.Хотелось бы в качестве .Советую всем скачать -норм анимеха !

Создавать темы 02-Янв-2013 23:00

[Профиль]  [ЛС] 

LargoWinch

Стаж: 5 лет 7 месяцев

Сообщений: 7

http://4image.uz/images/3903.gif

Создавать темы 03-Янв-2013 14:04

[Профиль]  [ЛС] 

VP Viktor

Стаж: 5 лет 4 месяца

Сообщений: 2

можно больше скорости пожалуйста

Создавать темы 23-Фев-2013 17:45

[Профиль]  [ЛС] 
Показать сообщения:    
Ответить на тему

Текущее время: 23-Окт 09:17

Часовой пояс: UTC + 5



Вы не можете начинать темы
Вы не можете отвечать на сообщения
Вы не можете редактировать свои сообщения
Вы не можете удалять свои сообщения
Вы не можете голосовать в опросах
Вы не можете прикреплять файлы к сообщениям
Вы не можете скачивать файлы