Покорители волн / Chasing Mavericks (Майкл Эптед, Кёртис Хэнсон / Michael Apted,Curtis Hanson) [2012г,. Драма,Спорт,. DVDRip]

Ответить на тему
 

Multiman ®

Стаж: 6 лет 9 месяцев

Сообщений: 19

Покорители волн / Chasing Mavericks
Страна: США
Год: 2012
Жанр: Драма,Спорт
Продолжительность: 01:51:28
Перевод: Профессиональный (полное дублирование)[Чистый Звук]
Режиссер: Майкл Эптед, Кёртис Хэнсон / Michael Apted,Curtis Hanson
В ролях: Джерард Батлер, Джонни Уэстон, Элизабет Шу, Эбигейл Спенсер, Ливэн Рамбин, Грег Лонг, Питер Мэл, Зэк Уормхудт, Девин Криттенден, Тейлор Хэндли
Описание: Серфинг — спорт королей. Не каждый сможет справиться с огромными волнами у побережья Калифорнии. Их называют Мавериксами, они достигают 25 метров в высоту. Хессон не раз покорял стихию, но не раскрыл своего секрета никому. Он дал обещание любимой женщине — больше не рисковать жизнью. Но смелость юного Джей подкупила Хессона. Смогут ли они, глядя смерти в лицо, удержаться на гребне волны?
Качество видео: DVDRip
Формат видео: AVI
Видео кодек: XviD
Аудио кодек: AC3
Видео: 720x384 (1.88:1), 25 fps, XviD build 50 ~1673 kbps avg, 0.24 bit/pixel
Аудио: 44.1 kHz, AC3 Dolby Digital, 2/0 (L,R) ch, ~192 kbps

MediaInfo

Общее
Полное имя : D:\Торенты\Pokoriteli.voln.XviD.2012.D.DVDRip.avi
Формат : AVI
Формат/Информация : Audio Video Interleave
Размер файла : 1,46 Гбайт
Продолжительность : 1 ч. 51 м.
Общий поток : 1875 Кбит/сек
Название фильма : Pokoriteli.voln.D.2012.DVDRip.1.46Gb_Epidemz.net
Программа кодирования : VirtualDubMod 1.5.10.2 (build 2540/release)
Правообладатель : R.G. KikTeam
Видео
Идентификатор : 0
Формат : MPEG-4 Visual
Профиль формата : Advanced [email protected]
Параметр BVOP формата : 2
Параметр QPel формата : Нет
Параметр GMC формата : Без точки перехода
Параметр матрицы формата : Выборочная
Идентификатор кодека : XVID
Идентификатор кодека/Подсказка : XviD
Продолжительность : 1 ч. 51 м.
Битрейт : 1674 Кбит/сек
Ширина : 720 пикселей
Высота : 384 пикселя
Соотношение сторон : 1,85:1
Частота кадров : 25,000 кадров/сек
Цветовое пространство : YUV
Субдискретизация насыщенности : 4:2:0
Битовая глубина : 8 бит
Тип развёртки : Прогрессивная
Метод сжатия : С потерями
Бит/(Пиксели*Кадры) : 0.242
Размер потока : 1,30 Гбайт (89%)
Библиотека кодирования : XviD 1.2.1 (UTC 2008-12-04)
Аудио
Идентификатор : 1
Формат : AC-3
Формат/Информация : Audio Coding 3
Расширение режима : CM (complete main)
Параметр Endianness формата : Big
Идентификатор кодека : 2000
Продолжительность : 1 ч. 51 м.
Вид битрейта : Постоянный
Битрейт : 192 Кбит/сек
Каналы : 2 канала
Расположение каналов : Front: L R
Частота : 44,1 КГц
Битовая глубина : 16 бит
Метод сжатия : С потерями
Размер потока : 153 Мбайт (10%)
Выравнивание : Разделение по промежуткам
Продолжительность промежутка : 40 мс. (1,00 видеокадр)
Время предзагрузки промежутка : 500 мс.

Скриншоты



Последний раз редактировалось: Multiman (2013-01-03 13:05), всего редактировалось 2 раз(а)

Создавать темы 03-Янв-2013 11:54

[Профиль]  [ЛС] 

Lithium

Стаж: 7 лет

Сообщений: 35

Полного источника не было: Никогда

Создавать темы 03-Янв-2013 12:51

[Профиль]  [ЛС] 

Multiman ®

Стаж: 6 лет 9 месяцев

Сообщений: 19

Lithium,
+

Создавать темы 03-Янв-2013 16:27

[Профиль]  [ЛС] 

skyrocker

Стаж: 5 лет 6 месяцев

Сообщений: 96

Симпатии: 3

Хорошее кино, волны жесть убийцы.. на такие смотреть страшно не то, что серфить на них.

Создавать темы 17-Янв-2013 12:04

[Профиль]  [ЛС] 
Показать сообщения:    
Ответить на тему

Текущее время: 23-Сен 00:01

Часовой пояс: UTC + 5



Вы не можете начинать темы
Вы не можете отвечать на сообщения
Вы не можете редактировать свои сообщения
Вы не можете удалять свои сообщения
Вы не можете голосовать в опросах
Вы не можете прикреплять файлы к сообщениям
Вы не можете скачивать файлы