Тай-цзи: Герой / Tai Chi Hero (Стивен Фанг) [2012 г., боевик, приключения, BDRip-AVC]

Ответить на тему
 

Suxrob89 ®

Стаж: 7 лет 1 месяц

Сообщений: 933

Симпатии: 564

-Тай-цзи: Герой / Tai Chi Hero- Год выпуска: 2012
Страна: Китай, Huayi Brothers & Taihe Film Investment, Diversion Pictures, Diversion Pictures
Жанр: боевик, приключения
Продолжительность: 01:42:36
Перевод: Любительский (двухголосый) [den904 и DeadSno]-Режиссер: Стивен Фанг-В ролях: Стивен Фанг, Юань Сяочао, Тони Люн Ка Фай, Эдди Пэн, Шу Ци, Дэниэл Ву, Стэнли Фунг, Пьер Бурдо, Пол Филип Кларк, Кеони Эверингтон, Анджела Бейби-Описание: Необыкновенно одарённого ребёнка Яна Лучаня все считают местным дурачком, тем не менее, мать Яна предлагает ему изучить боевые искусства. Подчинившись её желанию, Ян отправляется в отдалённую деревню Чэнь обучаться тайцзы. В этой легендарной деревне все практикуют тайцзы, и используют его в повседневной жизни. Однако жителям деревни запрещено раскрывать аспекты тайцзы чужакам, и Ян узнал об этом на собственном опыте.-Качество: BDRip-AVC [Рип с BluRay]
Формат: MKV (x264)
Видео кодек: H.264
Аудио кодек: AC3
Видео: 1518 kb/s, 1024x432
Аудио: AC3, 384 kb/s (6 ch)- -

MediaInfo

Complete name : Tai.Chi.Hero.2012.L2.BDRip-AVC-ed_rez.mkv
Format : Matroska
Format version : Version 4 / Version 2
File size : 1.36 GiB
Duration : 1h 42mn
Overall bit rate : 1 904 Kbps
Movie name : -::: ed_rez :::-
Encoded date : UTC 2010-02-22 21:41:31
Writing application : mkvmerge v5.9.0 ('On The Loose') built on Dec 9 2012 15:37:01
Writing library : libebml v1.3.0 + libmatroska v1.4.0
Video
ID : 1
Format : AVC
Format/Info : Advanced Video Codec
Format profile : [email protected]
Format settings, CABAC : Yes
Format settings, ReFrames : 8 frames
Codec ID : V_MPEG4/ISO/AVC
Duration : 1h 42mn
Bit rate : 1 518 Kbps
Width : 1 024 pixels
Height : 432 pixels
Display aspect ratio : 2.40:1
Frame rate mode : Constant
Frame rate : 23.976 fps
Color space : YUV
Chroma subsampling : 4:2:0
Bit depth : 8 bits
Scan type : Progressive
Bits/(Pixel*Frame) : 0.143
Stream size : 1.06 GiB (78%)
Title : Tai Chi Hero (2012)
Writing library : x264 core 129 r2230 1cffe9f
Encoding settings : cabac=1 / ref=8 / deblock=1:-3:-3 / analyse=0x3:0x113 / me=umh / subme=10 / psy=1 / psy_rd=1.00:0.15 / mixed_ref=1 / me_range=32 / chroma_me=1 / trellis=2 / 8x8dct=1 / cqm=0 / deadzone=21,11 / fast_pskip=0 / chroma_qp_offset=-3 / threads=8 / lookahead_threads=1 / sliced_threads=0 / nr=0 / decimate=1 / interlaced=0 / bluray_compat=0 / constrained_intra=0 / bframes=7 / b_pyramid=2 / b_adapt=2 / b_bias=0 / direct=3 / weightb=1 / open_gop=0 / weightp=2 / keyint=240 / keyint_min=23 / scenecut=40 / intra_refresh=0 / rc_lookahead=60 / rc=2pass / mbtree=1 / bitrate=1518 / ratetol=1.0 / qcomp=0.70 / qpmin=10 / qpmax=69 / qpstep=4 / cplxblur=20.0 / qblur=0.5 / ip_ratio=1.40 / aq=1:1.00
Language : Chinese
Default : Yes
Forced : No
Audio
ID : 2
Format : AC-3
Format/Info : Audio Coding 3
Mode extension : CM (complete main)
Format settings, Endianness : Big
Codec ID : A_AC3
Duration : 1h 42mn
Bit rate mode : Constant
Bit rate : 384 Kbps
Channel(s) : 6 channels
Channel positions : Front: L C R, Side: L R, LFE
Sampling rate : 48.0 KHz
Bit depth : 16 bits
Compression mode : Lossy
Stream size : 282 MiB (20%)
Title : [DVO] AC3, 384 kb/s (6 ch)
Language : Russian
Default : Yes
Forced : No
Menu
00:00:00.000 : :Chapter 1
00:10:00.000 : :Chapter 2
00:20:00.000 : :Chapter 3
00:30:00.000 : :Chapter 4
00:40:00.000 : :Chapter 5
00:50:00.000 : :Chapter 6
01:00:00.000 : :Chapter 7
01:10:00.000 : :Chapter 8
01:20:00.000 : :Chapter 9
01:30:00.000 : :Chapter 10
01:40:00.000 : :Chapter 11

Скриншоты




Создавать темы 04-Янв-2013 10:07

[Профиль]  [ЛС] 

KoT

Стаж: 6 лет 8 месяцев

Сообщений: 101

Симпатии: 1

наснимают же всякой ерунды эти узкоглазые

Создавать темы 04-Янв-2013 10:16

[Профиль]  [ЛС] 

The_HiDDeN

Стаж: 4 года 11 месяцев

Сообщений: 23

наснимают же всякой ерунды эти
узкоглазые
ты думай прежде чем писать что нибудь. . .

Создавать темы 04-Янв-2013 10:28

[Профиль]  [ЛС] 

PARTYZAN

Стаж: 4 года 8 месяцев

Сообщений: 12

KoT, варн бы тебе хорошего ядрённого

Создавать темы 04-Янв-2013 10:29

[Профиль]  [ЛС] 

drabadan

Симпатии: 27

полностью согласен с катом

Создавать темы 04-Янв-2013 10:59

 

Топик был перенесен из форума Фильмы за 2012 (новинки) в форум Азиатские фильмы

victor0778

Создавать темы 04-Янв-2013 11:11

 

stilet_18

Стаж: 5 лет 7 месяцев

Сообщений: 26

Спасибо, давно ждал)

Создавать темы 06-Янв-2013 14:58

[Профиль]  [ЛС] 

stilet_18

Стаж: 5 лет 7 месяцев

Сообщений: 26

У тебя нет первой части?

Создавать темы 10-Янв-2013 21:47

[Профиль]  [ЛС] 

KoT

Стаж: 6 лет 8 месяцев

Сообщений: 101

Симпатии: 1

drabadan спасибо дружище )
реально эти фильмы для бездельников школьников ))) а то что предупреждение получил я лан пусть стоит но в реале за это в бубен дам

Создавать темы 13-Янв-2013 08:40

[Профиль]  [ЛС] 

lux

Стаж: 6 лет 5 месяцев

Сообщений: 47

KoT, на вкус и свет товарищей нет!!!!! трепло

Создавать темы 21-Янв-2013 22:41

[Профиль]  [ЛС] 
Показать сообщения:    
Ответить на тему

Текущее время: 25-Сен 00:29

Часовой пояс: UTC + 5



Вы не можете начинать темы
Вы не можете отвечать на сообщения
Вы не можете редактировать свои сообщения
Вы не можете удалять свои сообщения
Вы не можете голосовать в опросах
Вы не можете прикреплять файлы к сообщениям
Вы не можете скачивать файлы