Восстание планеты обезьян / Rise of the Planet of the Apes (Руперт Уайатт) [2011 г., фантастика, боевик, триллер, драма, BDRip.720]

Ответить на тему
 

aziz2725272 ®

Стаж: 4 года 11 месяцев

Сообщений: 158

Симпатии: 6

Восстание планеты обезьян / Rise of the Planet of the Apes Год выпуска: 2011
Страна: США, Twentieth Century Fox Film Corporation
Жанр: фантастика, боевик, триллер, драма
Продолжительность: 01:44:57
Перевод: Русский дублированный перевод + Оригинальная дорожка
Режиссер: Руперт Уайатт
В ролях: Джеймс Франко, Фрида Пинто, Джон Литгоу, Брайан Кокс, Том Фелтон, Дэвид Ойелоуо, Тайлер Лэбин, Джэми Харрис, Дэвид Хьюлетт, Ти Олссон...
Описание: Действие фильма происходит в современном Сан-Франциско и строится вокруг ученого, генетические эксперименты которого привели к возникновению высокоразвитого интеллекта у обезьян. Приматы, осознав свое подчиненное положение, поднимают восстание и лишают человека звания царя природы.Знаете ли вы, что...• Шимпанзе Цезаря (зачинщика обезьяньего бунта) изобразил Энди Серкис, ранее подаривший пластику и мимику Голлуму и Кинг Конгу.
• «Восстание…» — первый фильм «обезьяньей» франшизы, в котором четверорукие приматы представляют собой CG-модели. В римейке «Планеты обезьян» Тима Бертона обезьян играли актеры в сложном гриме.
• У картины было три рабочих названия: «Цезарь» (Caesar), «Цезарь: Восстание обезьян» (Caesar: Rise of the Apes) и «Восстание обезьян» (Rise of the Apes). Окончательным названием — «Восстание планеты обезьян» (Rise of the Planet of the Apes) создатели фильма решили подчеркнуть связь с франшизой «Планета обезьян» (Planet of the Apes).
• Цезарь использует связку палок, чтобы объяснить Морису, как одна обезьяна слаба, а обезьяны вместе — сильны. Так же связка палок, или Фа́сции, была символом власти в древнем Риме, происхождении имени Цезаря. Образ Цезаря также напоминает о Бенито Муссолини, который принял Фа́сции как символ его итальянской Фашистской стороны.
• На роль Уилла, которого сыграл Джеймс Франко, рассматривался также Тоби Магуайр.



Качество: BDRip.720
Формат: MKV
Видео кодек: H.26x
Аудио кодек: AC3
Видео: AVC, 1280x544 (2.35:1), 23.976 fps, 6122 Kbps (0.291 bit/pixel)
Аудио: Audio #1: AC-3, 48.0 KHz, 6 ch, 640 Kbps, CBR (Russian) Audio #2: DTS, 48.0 KHz, 6 ch, 640 Kbps, CBR (English)
Субтитры: Русские (полные, форсированные), Английские.

MediaInfo

Восстание планеты обезьян / Rise of the Planet of the Apes
Формат : Matroska
Версия формата : Version 2
Размер файла : 5,43 Гбайт
Продолжительность : 1 ч. 44 м.
Общий поток : 7401 Кбит/сек
Название фильма : Rise of the Planet of the Apes (2011) BDRip [720p] / Release by HQ-ViDEO
Дата кодирования: UTC 2012-11-03 17:11:25
Программа кодирования: mkvmerge v5.6.0 ('Kenya Kane') built on May 27 2012 16:44:04
Библиотека кодирования : libebml v1.2.3 + libmatroska v1.3.0
Видео
Идентификатор : 1
Формат : AVC
Формат/Информация : Advanced Video Codec
Профиль формата : [email protected]
Параметр CABAC формата : Да
Параметр ReFrames формата : 10 кадров
Идентификатор кодека : V_MPEG4/ISO/AVC
Продолжительность : 1 ч. 44 м.
Битрейт : 6122 Кбит/сек
Ширина : 1280 пикселей
Высота : 544 пикселя
Соотношение сторон : 2,35:1
Режим частоты кадров : Постоянный
Частота кадров: 23,976 кадра/сек
Цветовое пространство: YUV
Субдискретизация насыщенности: 4:2:0
Битовая глубина: 8 бит
Тип развёртки: Прогрессивная
Бит/(Пиксели*Кадры): 0.367
Размер потока: 4,38 Гбайт (81%)
Заголовок : Encode by HDxT
Библиотека кодирования : x264 core 116 r2074 2641b9e
Настройки программы : cabac=1 / ref=11 / deblock=1:-3:-3 / analyse=0x3:0x113 / me=umh / subme=10 / psy=1 / psy_rd=1.07:0.07 / mixed_ref=1 / me_range=32 / chroma_me=1 / trellis=2 / 8x8dct=1 / cqm=0 / deadzone=21,11 / fast_pskip=1 / chroma_qp_offset=-3 / threads=6 / sliced_threads=0 / nr=0 / decimate=1 / interlaced=0 / bluray_compat=0 / constrained_intra=0 / bframes=7 / b_pyramid=1 / b_adapt=2 / b_bias=0 / direct=1 / weightb=1 / open_gop=0 / weightp=2 / keyint=240 / keyint_min=24 / scenecut=40 / intra_refresh=0 / rc_lookahead=40 / rc=2pass / mbtree=1 / bitrate=6122 / ratetol=1.0 / qcomp=0.60 / qpmin=0 / qpmax=69 / qpstep=4 / cplxblur=20.0 / qblur=0.5 / vbv_maxrate=62500 / vbv_bufsize=25000 / nal_hrd=none / ip_ratio=1.30 / aq=1:0.70
Язык : English
Default : Да
Forced: Нет
Аудио #1
Идентификатор: 2
Формат : AC-3
Формат/Информация : Audio Coding 3
Расширение режима : CM (complete main)
Параметр Endianness формата : Big
Идентификатор кодека : A_AC3
Продолжительность: 1 ч. 44 м.
Вид битрейта: Постоянный
Битрейт : 640 Кбит/сек
Каналы : 6 каналов
Расположение каналов : Front: L C R, Side: L R, LFE
Частота : 48,0 КГц
Битовая глубина : 16 бит
Метод сжатия : С потерями
Размер потока : 480 Мбайт (9%)
Заголовок : AC3 5.1 @ 640 Kbps - DUB
Язык : Russian
Default : Да
Forced : Нет
Аудио #2
Идентификатор : 3
Формат : AC-3
Формат/Информация : Audio Coding 3
Расширение режима : CM (complete main)
Параметр Endianness формата : Big
Идентификатор кодека : A_AC3
Продолжительность : 1 ч. 44 м.
Вид битрейта : Постоянный
Битрейт : 640 Кбит/сек
Каналы : 6 каналов
Расположение каналов : Front: L C R, Side: L R, LFE
Частота : 48,0 КГц
Битовая глубина: 16 бит
Метод сжатия : С потерями
Размер потока : 480 Мбайт (9%)
Заголовок : AC3 5.1 @ 640 Kbps
Язык : English
Default : Нет
Forced : Нет
Текст #1
Идентификатор : 4
Формат : UTF-8
Идентификатор кодека : S_TEXT/UTF8
Идентификатор кодека/Информация : UTF-8 Plain Text
Заголовок : Forced
Язык : Russian
Default : Да
Forced : Нет
Текст #2
Идентификатор : 5
Формат : UTF-8
Идентификатор кодека : S_TEXT/UTF8
Идентификатор кодека/Информация : UTF-8 Plain Text
Язык : Russian
Default : Нет
Forced : Нет
Текст #3
Идентификатор : 6
Формат : UTF-8
Идентификатор кодека : S_TEXT/UTF8
Идентификатор кодека/Информация : UTF-8 Plain Text
Язык : English
Default : Нет
Forced : Нет

Скриншоты






Последний раз редактировалось: aziz2725272 (2013-01-05 11:25), всего редактировалось 3 раз(а)

Создавать темы 05-Янв-2013 09:23

[Профиль]  [ЛС] 

aziz2725272 ®

Стаж: 4 года 11 месяцев

Сообщений: 158

Симпатии: 6

victor0778, ну как получилось

Создавать темы 05-Янв-2013 09:26

[Профиль]  [ЛС] 

Morphing

Стаж: 5 лет 2 месяца

Сообщений: 211

Симпатии: 37

aziz2725272, В Личку ему напишете

Создавать темы 05-Янв-2013 09:40

[Профиль]  [ЛС] 

Morphing

Стаж: 5 лет 2 месяца

Сообщений: 211

Симпатии: 37

aziz2725272, У вас в MediaInfo 640 Кбит/сек , а в Аудио:384 Kbps

Создавать темы 05-Янв-2013 09:43

[Профиль]  [ЛС] 

aziz2725272 ®

Стаж: 4 года 11 месяцев

Сообщений: 158

Симпатии: 6

MediaInfo программа так показал

Создавать темы 05-Янв-2013 09:46

[Профиль]  [ЛС] 

Morphing

Стаж: 5 лет 2 месяца

Сообщений: 211

Симпатии: 37

aziz2725272, Исправьте

Создавать темы 05-Янв-2013 10:09

[Профиль]  [ЛС] 

aziz2725272 ®

Стаж: 4 года 11 месяцев

Сообщений: 158

Симпатии: 6

как мне исправит что программа так показывает

Создавать темы 05-Янв-2013 10:31

[Профиль]  [ЛС] 

victor0778

Стаж: 6 лет 7 месяцев

Сообщений: 1670

Симпатии: 142

aziz2725272, кучу неточностей поправил

Создавать темы 05-Янв-2013 11:26

[Профиль]  [ЛС] 

aziz2725272 ®

Стаж: 4 года 11 месяцев

Сообщений: 158

Симпатии: 6

victor0778, Большое спасибо

Создавать темы 05-Янв-2013 19:17

[Профиль]  [ЛС] 

Егор

Стаж: 4 года 8 месяцев

Сообщений: 19

Симпатии: 13

дайте а наконец скорости... уже больше недели на закачке стоит...

Создавать темы 21-Янв-2013 14:52

[Профиль]  [ЛС] 

Spiritbreaker

Стаж: 4 года 8 месяцев

Сообщений: 76

скорости скорости!!!

Создавать темы 27-Янв-2013 14:31

[Профиль]  [ЛС] 

hood1k

Стаж: 4 года 8 месяцев

Сообщений: 91

Симпатии: 3

Не уходите с раздачи

Создавать темы 30-Май-2014 11:47

[Профиль]  [ЛС] 
Показать сообщения:    
Ответить на тему

Текущее время: 21-Сен 15:22

Часовой пояс: UTC + 5



Вы не можете начинать темы
Вы не можете отвечать на сообщения
Вы не можете редактировать свои сообщения
Вы не можете удалять свои сообщения
Вы не можете голосовать в опросах
Вы не можете прикреплять файлы к сообщениям
Вы не можете скачивать файлы