Самый пьяный округ в мире / Lawless (Джон Хиллкоут / John Hillcoat) [2012 г., США, драма, криминал, BDRip-AVC] [US] AVO (Сербин) + Original (Eng) + Subs (rus, eng, spa)

Ответить на тему
 

inviz ®

Стаж: 5 лет 9 месяцев

Сообщений: 153

Симпатии: 6

-Самый пьяный округ в мире / Lawless-
«Преступники станут легендой»
- Год выпуска: 2012
Страна: США
Жанр: драма, криминал
Продолжительность: 01:55:45
Перевод: авторский (одноголосый закадровый) Ю.Сербин
Оригинальная аудиодорожка: английский
Русские субтитры: есть
Навигация по главам: есть-Режиссер: Джон Хиллкоут / John Hillcoat-В ролях: Шайа ЛаБаф (Jack Bondurant), Том Харди (Forrest Bondurant), Гари Олдман (Floyd Banner), Джессика Честейн (Maggie Beauford), Гай Пирс (Charlie Rakes), Джейсон Кларк (Howard Bondurant), Миа Васиковска (Bertha Minnix), Дэйн ДеХаан (Cricket Pate), Крис МакГарри (Danny), Тим Толин (Mason Wardell), Лью Темпл (Deputy Henry Abshire), Маркус Хестер (Deputy Jeff Richards)-Описание: Действие в картине разворачивается на американском Юге во времена сухого закона и Великой Депрессии. В центре сюжета - семья Бондурант, три брата, Джек, Форрест и Говард, которые занимаются запрещенным в то время бизнесом, бутлегерством.
Оптимистично настроенный Джек, самый молодой из братьев, надеется с помощью бутлегерства заработать денег и произвести впечатление на свою девушку Берту. В это же время Форрест, напротив, настроен очень мрачно, он молчалив и подозрителен, а Говарду к тому же часто приходится иметь дело с врагами незаконного семейного бизнеса, в лице которых выступают коррумпированные местные полицейские.-Доп. информация: Лицам до 17 лет обязательно присутствие взрослого-Качество: | Исходник: BDRip-AVC | Lawless.2012.BluRay.1080p.AVC.DTS-HDMA5.1-CHDBits
Контейнер: MKV
Видео кодек: H.264
Аудио кодек: AC3
Видео : H.264, 1104x460, 23.976 fps, ~2706 kbps, Bits/(Pixel*Frame):0.222
Аудио 1: Русский: 48 kHz, AC3, 3/2 (L,C,R,l,r) + LFE ch, ~448.00 kbps | авторский (одноголосый закадровый) Ю.Сербин
Аудио 2: Английский: 48 kHz, AC3, 3/2 (L,C,R,l,r) + LFE ch, ~448.00 kbps
Формат субтитров: softsub (SRT) | русские (lord666), английские (SDH и обычные), испанские

Благодарности

Перевод Ю.Сербина выкуплен в рамках сервиса "Озвучивание". Спонсоры: DaviD18_85, tambov68, morov, u6868, denismgn1987, zu1u, Romao, kinomexanik, Sin. pic
За работу над дорогой спасибо doclogan
За рус.сабы спасибо lord666

MediaInfo

General
Unique ID : 226830914271547460822512463413104099241 (0xAAA60B85D46DEF99AEC42C46F00C3FA9)
Complete name : Lawless.2012.barm.mkv
Format : Matroska
Format version : Version 2
File size : 2.91 GiB
Duration : 1h 55mn
Overall bit rate : 3 604 Kbps
Movie name : Lawless 2012
Encoded date : UTC 2012-12-05 19:02:35
Writing application : mkvmerge v5.8.0 ('No Sleep / Pillow') built on Sep 2 2012 15:37:04
Writing library : libebml v1.2.3 + libmatroska v1.3.0
Attachment : Yes
Video
ID : 1
Format : AVC
Format/Info : Advanced Video Codec
Format profile : [email protected]
Format settings, CABAC : Yes
Format settings, ReFrames : 14 frames
Codec ID : V_MPEG4/ISO/AVC
Duration : 1h 55mn
Bit rate : 2 706 Kbps
Width : 1 104 pixels
Height : 460 pixels
Display aspect ratio : 2.40:1
Frame rate mode : Constant
Frame rate : 23.976 fps
Color space : YUV
Chroma subsampling : 4:2:0
Bit depth : 8 bits
Scan type : Progressive
Bits/(Pixel*Frame) : 0.222
Stream size : 2.13 GiB (73%)
Title : Lawless
Writing library : x264 core 129 r2230 1cffe9f
Encoding settings : cabac=1 / ref=14 / deblock=1:-3:-3 / analyse=0x3:0x133 / me=umh / subme=11 / psy=1 / psy_rd=1.06:0.00 / mixed_ref=1 / me_range=32 /
chroma_me=1 / trellis=2 / 8x8dct=1 / cqm=0 / deadzone=21,11 / fast_pskip=0 / chroma_qp_offset=-2 / threads=6 / lookahead_threads=1 / sliced_threads=0 / nr=0 / decimate=0 /
interlaced=0 / bluray_compat=0 / constrained_intra=0 / bframes=12 / b_pyramid=2 / b_adapt=2 / b_bias=0 / direct=3 / weightb=1 / open_gop=0 / weightp=2 / keyint=250 /
keyint_min=23 / scenecut=40 / intra_refresh=0 / rc_lookahead=60 / rc=2pass / mbtree=0 / bitrate=2706 / ratetol=1.0 / qcomp=0.65 / qpmin=0 / qpmax=69 / qpstep=4 /
cplxblur=20.0 / qblur=0.5 / vbv_maxrate=25000 / vbv_bufsize=31250 / nal_hrd=none / ip_ratio=1.40 / pb_ratio=1.25 / aq=2:0.80 / zones=157487,166530,q=30
Language : English
Default : Yes
Forced : No
Matrix coefficients : BT.709
Audio #1
ID : 2
Format : AC-3
Format/Info : Audio Coding 3
Mode extension : CM (complete main)
Format settings, Endianness : Big
Codec ID : A_AC3
Duration : 1h 55mn
Bit rate mode : Constant
Bit rate : 448 Kbps
Channel(s) : 6 channels
Channel positions : Front: L C R, Side: L R, LFE
Sampling rate : 48.0 KHz
Bit depth : 16 bits
Compression mode : Lossy
Stream size : 371 MiB (12%)
Title : J.Serbin, 48 kHz, AC3, 3/2 (L,C,R,l,r) + LFE ch, ~ 448.00 kbps
Language : Russian
Default : Yes
Forced : No
Audio #2
ID : 3
Format : AC-3
Format/Info : Audio Coding 3
Mode extension : CM (complete main)
Format settings, Endianness : Big
Codec ID : A_AC3
Duration : 1h 55mn
Bit rate mode : Constant
Bit rate : 448 Kbps
Channel(s) : 6 channels
Channel positions : Front: L C R, Side: L R, LFE
Sampling rate : 48.0 KHz
Bit depth : 16 bits
Compression mode : Lossy
Stream size : 371 MiB (12%)
Title : Original, 48 kHz, AC3, 3/2 (L,C,R,l,r) + LFE ch, ~ 448.00 kbps
Language : English
Default : No
Forced : No
Text #1
ID : 4
Format : UTF-8
Codec ID : S_TEXT/UTF8
Codec ID/Info : UTF-8 Plain Text
Title : lord666
Language : Russian
Default : No
Forced : No
Text #2
ID : 5
Format : UTF-8
Codec ID : S_TEXT/UTF8
Codec ID/Info : UTF-8 Plain Text
Language : English
Default : No
Forced : No
Text #3
ID : 6
Format : UTF-8
Codec ID : S_TEXT/UTF8
Codec ID/Info : UTF-8 Plain Text
Title : SDH
Language : English
Default : No
Forced : No
Text #4
ID : 7
Format : UTF-8
Codec ID : S_TEXT/UTF8
Codec ID/Info : UTF-8 Plain Text
Language : Spanish
Default : No
Forced : No
Menu
00:00:00.000 : en:Chapter 1
00:04:36.818 : en:Chapter 2
00:09:16.639 : en:Chapter 3
00:14:39.587 : en:Chapter 4
00:21:55.689 : en:Chapter 5
00:26:34.342 : en:Chapter 6
00:34:23.895 : en:Chapter 7
00:41:06.964 : en:Chapter 8
00:48:30.824 : en:Chapter 9
00:56:45.652 : en:Chapter 10
01:05:11.073 : en:Chapter 11
01:11:21.902 : en:Chapter 12
01:19:30.724 : en:Chapter 13
01:25:00.887 : en:Chapter 14
01:31:49.837 : en:Chapter 15
01:37:32.888 : en:Chapter 16
01:44:44.736 : en:Chapter 17
01:49:07.707 : en:Chapter 18

Дополнительно о фильме

Фильм поставлен по книге Мэтта Бондуранта «Самое мокрое место в мире» (The Wettest County in the World: A Novel Based on a True Story). Бондурант написал свой роман, основываясь на подлинной истории своего деда.
Райан Гослинг рассматривался на роль Джека.
Мэгги могла сыграть Скарлетт Йоханссон.
Шайа ЛаБаф был первым актёром, утверждённым в фильме.
Первоначально Говарда должен был сыграть Джеймс Франко, а Форреста — Райан Гослинг.
Приглашая Джессику Честейн, Джон Хилкоут позвонил Терренсу Малику, у которого она снялась в «Древе жизни». По словам Хилкоута, он никогда не слышал столь лестных отзывов о ком-либо, тем более от Малика.
У Васиковски, Харди и Честейн не было кинопроб, в то время как у Джейсона Кларка и Дэйна ДеХаана — были.
Продюсеры фильма Дуглас Уик и Люси Фишер были столь впечатлены игрой Джейсона Кларка, что в дальнейшем рекомендовали его Базу Лурману для фильма «Великий Гэтсби».
Первоначально предполагалось, что персонаж Тома Харди будет более худым, но Харди пришлось набрать мышечную массу для фильма «Темный рыцарь: Возрождение легенды» (2012).
Когда Джека заставили ждать снаружи, пока Форрест и Говард мстят тем двоим, что напали на Форреста, освещение снаружи состоит из энергосберегающих ламп. Очевидно, что этот тип ламп не существовал в то время.
Телефонные столбы, которые показывают в некоторых сценах, так же держат и линии кабельного телевидения, некоторые из которых оснащены современными «петлями расширения». В США не было кабельного телевидения до 1948 года.
Когда Джек и Крикет сопровождают грузовик полный контрабандного спиртного, количество ящиков в кузове меняется несколько раз.
Во время перестрелки на мосту шериф стреляет в агента Рейкса, и, кажется, попадает в заднюю часть его левой ноги. Но когда Рейкс отступает к мосту, на его костюме не видно никаких признаков пулевого ранения или крови.

Скриншоты



Создавать темы 05-Янв-2013 12:55

[Профиль]  [ЛС] 

Imhoteb

Стаж: 4 года 10 месяцев

Сообщений: 22

Странное дело, фильм вроде вышел достаточно давно, но до сих нигде нет дорожки с нормальным дубляжом...
Но большое спасибо за оригинальную дорожку, в принципе с ней ждал...

Создавать темы 05-Янв-2013 13:28

[Профиль]  [ЛС] 

pumma

Стаж: 6 лет 6 месяцев

Сообщений: 64

Симпатии: 1

Вообщето лиц. дорого будет, нет?

Создавать темы 12-Янв-2013 19:46

[Профиль]  [ЛС] 

root

Стаж: 5 лет 2 месяца

Сообщений: 592

Симпатии: 172

Этот Лабаф во всех фильмах будет теперь ныть

Создавать темы 23-Янв-2013 14:54

[Профиль]  [ЛС] 
Показать сообщения:    
Ответить на тему

Текущее время: 17-Авг 22:33

Часовой пояс: UTC + 5



Вы не можете начинать темы
Вы не можете отвечать на сообщения
Вы не можете редактировать свои сообщения
Вы не можете удалять свои сообщения
Вы не можете голосовать в опросах
Вы не можете прикреплять файлы к сообщениям
Вы не можете скачивать файлы