Инициал «Ди» - Стадия третья / Initial D: Third Stage (Нобору Митсусава) [2001 г., спокон, спорт, романтика, драма, TVRip]

Ответить на тему
 

Bender ®

Стаж: 5 лет 1 месяц

Сообщений: 27

-Инициал «Ди» - Стадия третья / Initial D: Third Stage--
Год выпуска: 2001
Страна: Япония
Жанр: спокон, спорт, романтика, драма
Продолжительность: 01:26:20
Перевод: Любительский (одноголосый)--Режиссер: Нобору Митсусава--В ролях: Крис Эйрс Грег Эйрс Кристофер Бевинс Стивен Блум Терри Доти Джош Грелл Тодд Хаберкорн Нобуюки Хияма Стивен Хофф Чак Хубер
Сценарий: Нубаки Кишима, Сюити Сигено, Хироши Тода--Описание: 100-минутный полнометражный мультфильм.
В 3-й части наше внимание теперь приковано не только к гонкам, но и к взаимоотношениям между героями. Графика на уровне 2-й части, изменений как таковых не замечено.
По сюжету Такуми Фудзивара, 18-летний парень, с 12 лет помогает своему отцу с работой в магазине тофу — каждое утро он на отцовском автомобиле Toyota Trueno AE86 осуществляет доставку на гору Акина. Ему приходится развозить тофу даже при плохой погоде, в результате чего он оттачивает свой навык езды до высокого уровня.
--Доп. информация: Сюжет сфокусирован на мире нелегальных японских уличных гонок. Основное действие происходит на горных спусках, изредка в городах и сельской местности. Основные события серии происходят в японской префектуре Гумма в горах региона Канто и близлежащих городских местностях. Хотя многие названия местности изменены, все события происходят на реальных территориях Японии. В гонках большое внимание уделяется технике прохождения поворотов — дрифту. Для повышения достоверности к сюжету привлекался «король дрифта» Кэйити Цутия, который консультировал сценаристов, дал разрешение на показ некоторых эпизодов своих «уроков экстремального вождения» и озвучил старого друга Бунты, бывалого гонщика (фактически, самого себя, в 23 серии первого сериала)--Качество: TVRip
Формат: MPEG
Видео: AVC 854x480 12.500fps 780 kbps
Аудио: AAC 44.1 KHz stereo 128 kbps
-- --
--

Медиа инфо

General
Format : MPEG-4
Format profile : Base Media
Codec ID : isom
File size : 681 MiB
Duration : 1h 44mn
Overall bit rate : 913 Kbps
Encoded date : UTC 1970-01-01 00:00:00
Tagged date : UTC 1970-01-01 00:00:00
Writing application : Lavf52.40.0
Video #1
ID : 1
Format : AVC
Format/Info : Advanced Video Codec
Format profile : High@L3.0
Format settings, CABAC : Yes
Format settings, ReFrames : 3 frames
Codec ID : avc1
Codec ID/Info : Advanced Video Coding
Duration : 1h 44mn
Bit rate mode : Variable
Bit rate : 780 Kbps
Nominal bit rate : 800 Kbps
Width : 854 pixels
Height : 480 pixels
Display aspect ratio : 16:9
Frame rate mode : Variable
Frame rate : 23.976 fps
Minimum frame rate : 12.500 fps
Maximum frame rate : 25.000 fps
Original frame rate : 25.000 fps
Resolution : 24 bits
Colorimetry : 4:2:0
Scan type : Progressive
Bits/(Pixel*Frame) : 0.079
Stream size : 582 MiB (85%)
Writing library : x264 core 79
Encoding settings : cabac=1 / ref=3 / deblock=1:0:0 / analyse=0x3:0x113 / me=hex / subme=7 / psy=1 / psy_rd=1.0:0.0 / mixed_ref=1 / me_range=16 / chroma_me=1 / trellis=1 / 8x8dct=1 / cqm=0 / deadzone=21,11 / chroma_qp_offset=-2 / threads=24 / nr=0 / decimate=1 / mbaff=0 / constrained_intra=0 / bframes=3 / b_pyramid=0 / b_adapt=1 / b_bias=0 / direct=1 / wpredb=32 / wpredp=2 / keyint=250 / keyint_min=25 / scenecut=40 / rc_lookahead=40 / rc=abr / mbtree=1 / bitrate=800 / ratetol=5.0 / qcomp=0.60 / qpmin=10 / qpmax=51 / qpstep=4 / ip_ratio=1.41 / aq=1:1.00
Encoded date : UTC 1970-01-01 00:00:00
Tagged date : UTC 1970-01-01 00:00:00
Audio #2
ID : 2
Format : AAC
Format/Info : Advanced Audio Codec
Format version : Version 4
Format profile : LC
Format settings, SBR : No
Codec ID : 40
Duration : 1h 44mn
Bit rate mode : Variable
Bit rate : 128 Kbps
Channel(s) : 2 channels
Channel positions : L R
Sampling rate : 44.1 KHz
Resolution : 16 bits
Stream size : 95.6 MiB (14%)
Encoded date : UTC 1970-01-01 00:00:00
Tagged date : UTC 1970-01-01 00:00:00

Скриншоты



Создавать темы 05-Янв-2013 15:28

[Профиль]  [ЛС] 

Топик был перенесен из форума Low-Rip (TS, TVRip, etc.) в форум Полнометражные аниме

Rambotnik

Создавать темы 05-Янв-2013 16:45

 
Показать сообщения:    
Ответить на тему

Текущее время: 23-Окт 09:19

Часовой пояс: UTC + 5



Вы не можете начинать темы
Вы не можете отвечать на сообщения
Вы не можете редактировать свои сообщения
Вы не можете удалять свои сообщения
Вы не можете голосовать в опросах
Вы не можете прикреплять файлы к сообщениям
Вы не можете скачивать файлы