Бригада: Наследник (2012) (Денис Алексеев) [2012 г., боевик, криминал, BDRip]

Ответить на тему
 

aziz2725272 ®

Стаж: 4 года 11 месяцев

Сообщений: 158

Симпатии: 6

Бригада: Наследник (2012)

Год выпуска: 2012
Жанр: боевик, криминал
Продолжительность: 01:46:11
Режиссер: Денис Алексеев
В ролях: Иван Макаревич, Екатерина Гусева, Кирилл Нагиев, Владислав Демин, Александр Иншаков, Анна Попова, Валерий Золотухин, Игорь Жижикин, Юрий Чурсин, Наталия Гуслистая
Описание: Фильм является идейным продолжением жизни героев телесериала «Бригада». Однако акцент смещен в историю сына Александра Белова — Ивана. Это Кино о современной России. О том, что у всех на устах: политике, коррупции, цинизме крупного бизнеса и спецслужб. О новом поколении, которое, узнав правду о нечистом бизнесе родителей, не идет по их стопам, а выбирает новый путь. Для них дороги понятия чести, любви и Родины. Герой, комфортно живший за границей, тем не менее, выбирает Россию (в отличие от сериала) и остается жить в ней, надеясь привнести эти идеалы в жизнь своих близких и страны в целом.
Выпущено: Россия / Independent Movie Company
Сохранены оригинальные чаптеры как на Blu-Ray
.
Качество: BDRip
Формат: MKV
Видео кодек: H.26x
Аудио кодек: DTS
Видео: 5200 kb/s, 1280x544
Аудио: DTS, 1510 kb/s (6 ch)

MediaInfo

: Полное имя : Brigada Naslednik.2012.720p.mkv
Формат : Matroska
Версия формата : Version 2
Размер файла : 4,96 Гбайт
Продолжительность : 1 ч. 46 м.
Общий поток : 6692 Кбит/сек
Название фильма : HDCLUB present "Brigada 2 (2012)"
Дата кодирования : UTC 2012-12-28 06:15:16
Программа кодирования : mkvmerge v5.6.0 ('Kenya Kane') built on May 27 2012 16:44:04
Библиотека кодирования : libebml v1.2.3 + libmatroska v1.3.0
Видео
Идентификатор : 1
Формат : AVC
Формат/Информация : Advanced Video Codec
Профиль формата : [email protected]
Параметр CABAC формата : Да
Параметр ReFrames формата : 12 кадров
Идентификатор кодека : V_MPEG4/ISO/AVC
Продолжительность : 1 ч. 46 м.
Битрейт : 5200 Кбит/сек
Ширина : 1280 пикселей
Высота : 544 пикселя
Соотношение сторон : 2,35:1
Режим частоты кадров : Постоянный
Частота кадров : 24,000 кадра/сек
Цветовое пространство : YUV
Субдискретизация насыщенности : 4:2:0
Битовая глубина : 8 бит
Тип развёртки : Прогрессивная
Бит/(Пиксели*Кадры) : 0.311
Размер потока : 3,75 Гбайт (75%)
Заголовок : Brigada_2.2012.720p.Bluray.Rus.HDCLUB
Библиотека кодирования : x264 core 129 r2230 1cffe9f
Настройки программы : cabac=1 / ref=12 / deblock=1:-3:-3 / analyse=0x3:0x133 / me=umh / subme=11 / psy=1 / psy_rd=1.00:0.00 / mixed_ref=1 / me_range=48 / chroma_me=1 / trellis=2 / 8x8dct=1 / cqm=0 / deadzone=21,11 / fast_pskip=0 / chroma_qp_offset=-2 / threads=12 / lookahead_threads=2 / sliced_threads=0 / nr=0 / decimate=1 / interlaced=0 / bluray_compat=0 / constrained_intra=0 / bframes=7 / b_pyramid=2 / b_adapt=2 / b_bias=0 / direct=3 / weightb=1 / open_gop=0 / weightp=2 / keyint=250 / keyint_min=23 / scenecut=40 / intra_refresh=0 / rc_lookahead=60 / rc=2pass / mbtree=0 / bitrate=5200 / ratetol=1.0 / qcomp=0.60 / qpmin=0 / qpmax=69 / qpstep=4 / cplxblur=20.0 / qblur=0.5 / vbv_maxrate=50000 / vbv_bufsize=62500 / nal_hrd=none / ip_ratio=1.40 / pb_ratio=1.30 / aq=1:0.80
Язык : Russian
Default : Да
Forced : Да
Аудио
Идентификатор : 2
Формат : DTS
Формат/Информация : Digital Theater Systems
Режим : 16
Параметр Endianness формата : Big
Идентификатор кодека : A_DTS
Продолжительность : 1 ч. 46 м.
Вид битрейта : Постоянный
Битрейт : 1509 Кбит/сек
Каналы : 6 каналов
Расположение каналов : Front: L C R, Side: L R, LFE
Частота : 48,0 КГц
Битовая глубина : 16 бит
Метод сжатия : С потерями
Размер потока : 1,12 Гбайт (23%)
Заголовок : DTS 5.1 @ 1509 kbps - Original [Core DTS-HD MA]
Язык : Russian
Default : Да
Forced : Да

Скриншоты




Создавать темы 05-Янв-2013 20:01

[Профиль]  [ЛС] 

alex3712

Стаж: 4 года 8 месяцев

Сообщений: 26

Симпатии: 12

Качать начали, дайте скорости !!!

Создавать темы 06-Янв-2013 01:23

[Профиль]  [ЛС] 

Джасур

Стаж: 5 лет

Сообщений: 6

Симпатии: 1

Фильм <~~>!

Создавать темы 06-Янв-2013 14:39

[Профиль]  [ЛС] 

alex3712

Стаж: 4 года 8 месяцев

Сообщений: 26

Симпатии: 12

Раздача нормальная буде или нет скажите, неделя уже и 28%...

Создавать темы 10-Янв-2013 10:53

[Профиль]  [ЛС] 

alex3712

Стаж: 4 года 8 месяцев

Сообщений: 26

Симпатии: 12

Докачавшие, нежадничайте, дайте скорости...

Создавать темы 18-Янв-2013 17:36

[Профиль]  [ЛС] 

aziz2725272 ®

Стаж: 4 года 11 месяцев

Сообщений: 158

Симпатии: 6

alex3712, 23% осталось по терпи

Создавать темы 18-Янв-2013 18:18

[Профиль]  [ЛС] 

alex3712

Стаж: 4 года 8 месяцев

Сообщений: 26

Симпатии: 12

alex3712, 23% осталось по терпи
ag уже 2 недели терплю... ag докачаю буду на раздаче до последнего...

Создавать темы 20-Янв-2013 11:33

[Профиль]  [ЛС] 

aziz2725272 ®

Стаж: 4 года 11 месяцев

Сообщений: 158

Симпатии: 6

ag уже 2 недели терплю... ag докачаю буду на раздаче до последнего...
bs спасибо

Создавать темы 21-Янв-2013 16:57

[Профиль]  [ЛС] 

skuchkarov

Стаж: 6 лет 4 месяца

Сообщений: 7

Пожалуйста, дайте скорость!

Создавать темы 26-Янв-2013 21:09

[Профиль]  [ЛС] 

baxabestboy95

Стаж: 6 лет 3 месяца

Сообщений: 72

Симпатии: 3

буте любезны скорость дайте

Создавать темы 04-Ноя-2015 21:26

[Профиль]  [ЛС] 
Показать сообщения:    
Ответить на тему

Текущее время: 20-Сен 07:15

Часовой пояс: UTC + 5



Вы не можете начинать темы
Вы не можете отвечать на сообщения
Вы не можете редактировать свои сообщения
Вы не можете удалять свои сообщения
Вы не можете голосовать в опросах
Вы не можете прикреплять файлы к сообщениям
Вы не можете скачивать файлы