Давай, до свидания! Лола против / Lola Versus (Дэрил Вейн) [2012 г., Комедия, BDRip 1080p]

Ответить на тему
 

aziz2725272 ®

Стаж: 4 года 10 месяцев

Сообщений: 158

Симпатии: 6

Давай, до свидания! Лола против
Lola Versus
«Против секса, любви и всего мира»
Год выпуска: 2012
Страна: Groundswell Productions
Жанр: Комедия
Продолжительность: 01:26:59
Перевод: Профессиональный (многоголосый, закадровый)
Режиссер: Дэрил Вейн
Грета Гервиг (Lola), Юэль Киннаман (Luke), Зои Листер Джонс (Alice), Хамиш Линклэйтер (Henry), Билл Пуллман (Lenny), Дебра Уингер (Robin), Мария Дицциа (Woman Subletter), Джонатан Сейл (Fantasy Bar Guy), Эбон Мосс-Бакрак (Nick), Адриан Ленокс (Professor), Рэй Яничелли (Man at Restaurant), Кэтрин Кейтс (Woman at Restaurant

Главная героиня фильма "Давай, до свидания! / Лола против / Lola Versus" очаровательная писательница по имени Лола, которая счастлива с женихом Люком. Свадьба — совершенно естественный следующий шаг в их длительных отношениях. Во всяком случае, так кажется невесте. А у Люка совершенно иное мнение на сей счет, и он решился озвучить его накануне свадьбы. И за три недели до свадьбы брошенная своим женихом девушка с помощью своих близких друзей пытается примириться с тем фактом, что свой 30-й день рождения она, по всей видимости, будет встречать холостячкой. Теперь, девушка разочарована в любви, в сексе, в самой жизни! Но за внешностью заплаканной неудачницы скрывается «стойкий оловянный солдатик», который всем еще покажет «кузькину мать».
Качество: BDRip 1080p
Формат: MKV
Видео кодек: H.26x
Аудио кодек: AC3
Видео: 1920x1040, 6804 Кбит/сек, 23,976 кадр/сек, AVC, x264, 16:9, 0.142 Бит/[Пиксели*Кадры], 2pass
Аудио: AC-3, 384 Кбит/сек, 6 канала(ов), 48,0 КГц

Знаете ли вы, что...

Орландо Блум должен был сниматься в главной роли, но отказался еще до начала съемок.

MediaInfo

Полное имя :Lola.Versus.2012.x264.BDRip.1080p.MVO.mkv
Формат : Matroska
Версия формата : Version 2
Размер файла : 4,36 Гбайт
Продолжительность : 1 ч. 26 м.
Общий поток : 7183 Кбит/сек
Дата кодирования : UTC 2012-12-04 12:00:48
Программа кодирования : mkvmerge v5.5.0 ('Healer') built on Apr 6 2012 21:43:24
Библиотека кодирования : libebml v1.2.3 + libmatroska v1.3.0
Видео
Идентификатор : 1
Формат : AVC
Формат/Информация : Advanced Video Codec
Профиль формата : [email protected]
Параметр CABAC формата : Да
Параметр ReFrames формата : 4 кадра
Идентификатор кодека : V_MPEG4/ISO/AVC
Продолжительность : 1 ч. 26 м.
Битрейт : 6804 Кбит/сек
Ширина : 1920 пикселей
Высота : 1040 пикселей
Соотношение сторон : 16:9
Соотношение сторон в оригинале : 1,85:1
Режим частоты кадров : Постоянный
Частота кадров : 23,976 кадра/сек
Цветовое пространство : YUV
Субдискретизация насыщенности : 4:2:0
Битовая глубина : 8 бит
Тип развёртки : Прогрессивная
Бит/(Пиксели*Кадры) : 0.142
Размер потока : 4,04 Гбайт (93%)
Заголовок : Давай, до свидания!
Библиотека кодирования : x264 core 129 r2230 1cffe9f
Настройки программы : cabac=1 / ref=3 / deblock=1:0:0 / analyse=0x3:0x113 / me=hex / subme=7 / psy=1 / psy_rd=1.00:0.00 / mixed_ref=1 / me_range=16 / chroma_me=1 / trellis=1 / 8x8dct=1 / cqm=0 / deadzone=21,11 / fast_pskip=1 / chroma_qp_offset=-2 / threads=12 / lookahead_threads=2 / sliced_threads=0 / nr=0 / decimate=1 / interlaced=0 / bluray_compat=0 / constrained_intra=0 / bframes=3 / b_pyramid=2 / b_adapt=1 / b_bias=0 / direct=1 / weightb=1 / open_gop=0 / weightp=2 / keyint=240 / keyint_min=23 / scenecut=40 / intra_refresh=0 / rc_lookahead=40 / rc=2pass / mbtree=1 / bitrate=6804 / ratetol=1.0 / qcomp=0.60 / qpmin=10 / qpmax=51 / qpstep=4 / cplxblur=20.0 / qblur=0.5 / ip_ratio=1.40 / aq=1:1.00
Язык : English
Default : Да
Forced : Нет
Аудио
Идентификатор : 2
Формат : AC-3
Формат/Информация : Audio Coding 3
Расширение режима : CM (complete main)
Параметр Endianness формата : Big
Идентификатор кодека : A_AC3
Продолжительность : 1 ч. 26 м.
Вид битрейта : Постоянный
Битрейт : 384 Кбит/сек
Каналы : 6 каналов
Расположение каналов : Front: L C R, Side: L R, LFE
Частота : 48,0 КГц
Битовая глубина : 16 бит
Метод сжатия : С потерями
Размер потока : 239 Мбайт (5%)
Заголовок : Профессиональный многоголосый
Язык : Russian
Default : Да
Forced : Нет

Скриншоты






Последний раз редактировалось: aziz2725272 (2013-01-06 11:30), всего редактировалось 1 раз

Создавать темы 06-Янв-2013 10:00

[Профиль]  [ЛС] 

aziz2725272 ®

Стаж: 4 года 10 месяцев

Сообщений: 158

Симпатии: 6

Фильм классно

попробуете скачать

Создавать темы 06-Янв-2013 10:15

[Профиль]  [ЛС] 

Топик был перенесен из форума Зарубежное кино в форум HD-AVC

Mixer City

Создавать темы 06-Янв-2013 11:29

 

aziz2725272 ®

Стаж: 4 года 10 месяцев

Сообщений: 158

Симпатии: 6

Фильм супер романтика

Скриншоты

Создавать темы 06-Янв-2013 15:37

[Профиль]  [ЛС] 

aziz2725272 ®

Стаж: 4 года 10 месяцев

Сообщений: 158

Симпатии: 6

Фильм супер романтика

Создавать темы 18-Янв-2013 18:24

[Профиль]  [ЛС] 

aziz2725272 ®

Стаж: 4 года 10 месяцев

Сообщений: 158

Симпатии: 6

Фильм супер романтика

Создавать темы 18-Янв-2013 18:24

[Профиль]  [ЛС] 
Показать сообщения:    
Ответить на тему

Текущее время: 21-Авг 04:17

Часовой пояс: UTC + 5



Вы не можете начинать темы
Вы не можете отвечать на сообщения
Вы не можете редактировать свои сообщения
Вы не можете удалять свои сообщения
Вы не можете голосовать в опросах
Вы не можете прикреплять файлы к сообщениям
Вы не можете скачивать файлы