Джеймс Бонд 007 Collection 23 фильма HD / James Bond 007 + bonus 25 фильмов DVDRip

Страницы :  1, 2  След.

Ответить на тему
 

alekshaman ®

Стаж: 7 лет

Сообщений: 6

Симпатии: 4

Джеймс Бонд 007 Collection 23 фильма HD / James Bond 007 + bonus 25 фильмов DVDRip

Доктор Ноу / Dr. No

Год выпуска: 1962
Слоган: «His name is Bond, James Bond»
Страна: Великобритания
Жанр: шпионский боевик
Продолжительность: 01:49:34
Перевод: Профессиональный (полное дублирование)
Режиссёр: Терренс Янг
Сценарий: Ян Флеминг, Джоанна Харвуд, Ричард Мэйбаум
Продюсер: Альберт Р. Брокколи, Хэрри Солтцмэн, Stanley Sopel
Оператор: Тед Мур
Композитор: Монти Норман, Джон Бэрри
В ролях: Шон Коннери, Урсула Андресс, Джозеф Уайзмен, Джек Лорд, Бернард Ли, Энтони Доусон, Зена Маршалл
Описание: Бонду дано задание выяснить что является источником электронных помех в компьютерах американских пусковых шахт на мысе Канаверал. По агентурным данным мозговой центр вражеских сил находится на Ямайке. Бонд незамедлительно выдвигается туда.
В процессе расследования ему придется столкнуться с могущественной структурой СПЕКТР и ее представителем Доктором Но, готовым пойти на все, лишь бы держать весь мир в своих металлических руках. И только Бонд и его верный Валльтер ППК могут остановить злые силы на знойном океанском побережье.
Качество: HDTVRip
Формат: MKV
Видео кодек: Xvid
Аудио кодек: AC3
Видео: 1280x736 23.98fps. Bitrate 4 986 Kbps
Аудио: Dolby AC3 48000Hz 6ch Bit rate 384 Kbps

Скриншоты

MI

Format : Matroska
File size : 4.19 GiB
Duration : 1h 49mn
Overall bit rate : 5 479 Kbps
Encoded date : UTC 2011-02-18 04:21:42
Writing application : mkvmerge v3.2.0 ('Beginnings') built on Feb 12 2010 16:46:17
Writing library : libebml v0.7.9 + libmatroska v0.8.1
Video
ID : 1
Format : MPEG-4 Visual
Format profile : Advanced [email protected]
Format settings, BVOP : Yes
Format settings, QPel : No
Format settings, GMC : No warppoints
Format settings, Matrix : Default (MPEG)
Codec ID : XVID
Codec ID/Hint : XviD
Duration : 1h 49mn
Bit rate : 4 986 Kbps
Width : 1 280 pixels
Height : 736 pixels
Display aspect ratio : 16:9
Frame rate : 23.976 fps
Color space : YUV
Chroma subsampling : 4:2:0
Bit depth : 8 bits
Scan type : Progressive
Bits/(Pixel*Frame) : 0.221
Stream size : 3.82 GiB (91%)
Writing library : XviD 1.1.0 (UTC 2005-11-22)
Language : English
Audio
ID : 2
Format : AC-3
Format/Info : Audio Coding 3
Mode extension : CM (complete main)
Codec ID : A_AC3
Duration : 1h 49mn
Bit rate mode : Constant
Bit rate : 384 Kbps
Channel(s) : 6 channels
Channel positions : Front: L C R, Side: L R, LFE
Sampling rate : 48.0 KHz
Bit depth : 16 bits
Stream size : 301 MiB (7%)
Language : Russian

Из России с любовью / From Russia With Love

Год выпуска: 1963
Слоган: «The world's masters of murder pull out all the stops to destroy Agent 007!»
Страна: Великобритания
Жанр: шпионский боевик
Продолжительность: 01:55:05
Перевод: Профессиональный (полное дублирование)
Режиссёр: Терренс Янг
Сценарий: Ричард Мэйбаум, Джоанна Харвуд, Ян Флеминг
Продюсер: Альберт Р. Брокколи, Хэрри Солтцмэн, Стэнли Сопел
Оператор: Тед Мур
Композитор: Джон Бэрри
В ролях: Шон Коннери, Даниэла Бьянки, Лотте Ленья, Педро Армендарис
Описание: Джеймс Бонд направлен на задание в Стамбул, чтобы спасти и вывезти на Запад русского агента, красавицу, владеющую тайной советского сверхсекретного шифровального аппарата "Лектор", а также выкрасть сам аппарат. В успешно проводимую операцию вклинивается агент СПЕКТРа Эрнест Ставро Блофелд. В его задачу входит не только обострить отношения между Великобританией и Советским Союзом, вернуть в Россию "Лектор" за большое вознаграждение, но также отомстить за смерть Доктора Ноу, заманив Бонда в хитроумную ловушку...
Качество: HDTVRip
Формат: MKV
Видео кодек: Xvid
Аудио кодек: AC3
Видео: 1280x744 23.98fps Bit rate 4732 Kbps
Аудио: Dolby AC3 48000Hz 6ch Bit rate 256 Kbps

Скриншоты

MI

Format : Matroska
File size : 4.09 GiB
Duration : 1h 55mn
Overall bit rate : 5 089 Kbps
Encoded date : UTC 2011-02-18 04:21:45
Writing application : mkvmerge v3.2.0 ('Beginnings') built on Feb 12 2010 16:46:17
Writing library : libebml v0.7.9 + libmatroska v0.8.1
Video
ID : 1
Format : MPEG-4 Visual
Format profile : [email protected]
Format settings, BVOP : Yes
Format settings, QPel : No
Format settings, GMC : No warppoints
Format settings, Matrix : Default (MPEG)
Codec ID : XVID
Codec ID/Hint : XviD
Duration : 1h 55mn
Bit rate : 4 732 Kbps
Width : 1 280 pixels
Height : 744 pixels
Display aspect ratio : 16:9
Frame rate : 23.976 fps
Color space : YUV
Chroma subsampling : 4:2:0
Bit depth : 8 bits
Scan type : Progressive
Bits/(Pixel*Frame) : 0.207
Stream size : 3.80 GiB (93%)
Writing library : XviD 1.1.0 Beta2 (UTC 2005-04-04)
Language : English
Audio
ID : 2
Format : AC-3
Format/Info : Audio Coding 3
Mode extension : CM (complete main)
Codec ID : A_AC3
Duration : 1h 55mn
Bit rate mode : Constant
Bit rate : 256 Kbps
Channel(s) : 2 channels
Channel positions : Front: L R
Sampling rate : 48.0 KHz
Bit depth : 16 bits
Stream size : 211 MiB (5%)
Language : Russian

Голдфингер / Goldfinger

Год выпуска: 1964
Слоган: «James Bond Back In Action!»
Страна: Великобритания
Жанр: шпионский боевик
Продолжительность: 01:49:34
Перевод: Профессиональный (полное дублирование)
Режиссёр: Гай Хэмилтон / Guy Hamilton
Сценарий: Ричард Мэйбаум, Пол Ден, Ян Флеминг
Продюсер: Альберт Р. Брокколи, Хэрри Солтцмэн
Оператор: Тед Мур
Композитор: Джон Бэрри, Монти Норман
В ролях: Шон Коннери, Хонор Блэкмен, Герт Фрёбе, Ширли Итон, Таня Мале, Харольд Саката, Бернард Ли, Мартин Бенсон, Сек Линдер, Остин Уиллис и др.
Описание: На этот раз Джеймс Бонд борется со злом в лице международного преступника Голдфингера. Негодяй планирует уничтожить золотой запас США, и таким образом ввергнуть в пучину хаоса все капиталистическое общество.
Помешать этим дерзким планам может только один человек. При помощи нескольких прекрасных женщин и множества хитроумных приспособлений агент 007 обезвреживает злодея и ликвидирует угрозу банкротства целого государства.
Качество: HDTVRip
Формат: MKV
Видео кодек: Xvid
Аудио кодек: AC3
Видео: 1280x744 23.98fps Bit rate 4973 Kbps
Аудио: Dolby AC3 48000Hz 6ch Bit rate 384 Kbps

Скриншоты

MI

Format : Matroska
File size : 4.19 GiB
Duration : 1h 49mn
Overall bit rate : 5 465 Kbps
Encoded date : UTC 2012-03-21 20:57:40
Writing application : mkvmerge v3.2.0 ('Beginnings') built on Feb 12 2010 16:46:17
Writing library : libebml v0.7.9 + libmatroska v0.8.1
Video
ID : 1
Format : MPEG-4 Visual
Format profile : Advanced [email protected]
Format settings, BVOP : Yes
Format settings, QPel : No
Format settings, GMC : No warppoints
Format settings, Matrix : Default (MPEG)
Codec ID : XVID
Codec ID/Hint : XviD
Duration : 1h 49mn
Bit rate : 4 973 Kbps
Width : 1 280 pixels
Height : 744 pixels
Display aspect ratio : 16:9
Frame rate : 23.976 fps
Color space : YUV
Chroma subsampling : 4:2:0
Bit depth : 8 bits
Scan type : Progressive
Bits/(Pixel*Frame) : 0.218
Stream size : 3.82 GiB (91%)
Writing library : XviD 1.2.0SMP (UTC 2006-01-08)
Language : English
Audio
ID : 2
Format : AC-3
Format/Info : Audio Coding 3
Mode extension : CM (complete main)
Codec ID : A_AC3
Duration : 1h 49mn
Bit rate mode : Constant
Bit rate : 384 Kbps
Channel(s) : 6 channels
Channel positions : Front: L C R, Side: L R, LFE
Sampling rate : 48.0 KHz
Bit depth : 16 bits
Stream size : 302 MiB (7%)
Language : Russian

Шаровая молния / Thunderball

Год выпуска: 1965
Слоган: «Look Up! Look Down! Look Out! Here Comes The Biggest Bond Of All! [Look is formed from the 007 logo]»
Страна: Великобритания
Жанр: шпионский боевик
Продолжительность: 02:10:17
Перевод: Профессиональный (полное дублирование)
Режиссёр: Терренс Янг
Сценарий: Ричард Мэйбаум, Джон Хопкинс, Джек Уиттингэм
Продюсер: Кевин МакКлори, Альберт Р. Брокколи, Хэрри Солтцмэн
Оператор: Тед Мур
Композитор: Джон Бэрри
В ролях: Шон Коннери /Sean Connery/, Клодин Огер /Claudine Auger/, Адольфо Сели /Adolfo Celi/, Лучана Палуцци /Luciana Paluzzi/, Рик Ван Наттер /Rik Van Nutter/, Молли Питерс /Molly Peters/, Мартин Бесвик /Martine Beswick/, Бернард Ли /Bernard Lee/, Десмонд Левелин /Desmond Llewelyn/
Описание: Четвертый фильм о Джеймсе Бонде, агенте английской секретной службы. Террористы из организации «Спектр» захватывают бомбардировщик с двумя атомными бомбами на борту и угрожают взорвать их, если британское правительство не доставит им алмазов на 100 миллионов фунтов стерлингов.
Как всегда Джеймс Бонд обезвреживает злодеев, успевая поплавать в бассейне, кишащем акулами и соблазнить любовницу главного террориста.
Качество: HDTVRip
Формат: MKV
Видео кодек: Xvid
Аудио кодек: AC3
Видео: 1280x736 23.98fps Bit rate 4376 Kbps
Аудио: Dolby AC3 48000Hz 6ch Bit rate 384 Kbps

Скриншоты

MI

Format : Matroska
File size : 4.42 GiB
Duration : 2h 10mn
Overall bit rate : 4 857 Kbps
Encoded date : UTC 2011-02-16 04:45:46
Writing application : mkvmerge v3.2.0 ('Beginnings') built on Feb 12 2010 16:46:17
Writing library : libebml v0.7.9 + libmatroska v0.8.1
Video
ID : 1
Format : MPEG-4 Visual
Format settings, BVOP : Yes
Format settings, QPel : No
Format settings, GMC : No warppoints
Format settings, Matrix : Default (MPEG)
Codec ID : DX50
Codec ID/Hint : DivX 5
Duration : 2h 10mn
Bit rate : 4 376 Kbps
Width : 1 280 pixels
Height : 544 pixels
Display aspect ratio : 2.35:1
Frame rate : 23.976 fps
Color space : YUV
Chroma subsampling : 4:2:0
Bit depth : 8 bits
Scan type : Progressive
Bits/(Pixel*Frame) : 0.262
Stream size : 3.98 GiB (90%)
Writing library : DivX 1974
Audio
ID : 2
Format : AC-3
Format/Info : Audio Coding 3
Mode extension : CM (complete main)
Codec ID : A_AC3
Duration : 2h 10mn
Bit rate mode : Constant
Bit rate : 384 Kbps
Channel(s) : 6 channels
Channel positions : Front: L C R, Side: L R, LFE
Sampling rate : 48.0 KHz
Bit depth : 16 bits
Stream size : 358 MiB (8%)
Language : Russian

Живешь только дважды / You Only Live Twice

Год выпуска: 1967
Слоган: «You Only Live Twice...and TWICE is the only way to live!»
Страна: США, Великобритания
Жанр: шпионский боевик
Продолжительность: 01:56:51
Перевод: Профессиональный (полное дублирование)
Режиссёр: Льюис Гилберт / Lewis Gilbert
Сценарий: Ян Флеминг / Ian Fleming, Роальд Даль / Roald Dahl, Харольд Джек Блум / Harold Jack Bloom
Продюсер: Альберт Р. Брокколи / Albert R. Broccoli, Хэрри Солтцмэн / Harry Saltzman Оператор: Фредди Янг / Freddie Young
Композитор: Джон Бэрри / John Barry, Монти Норман / Monty Norman
В ролях: Шон Коннери (James Bond,), Акико Вакабаяси (Aki), Миэ Хама (Kissy Suzuki), Тэцуро Тамба (Tiger Tanaka), Тэру Симада (Mr. Osato), Карин Дор (Helga Brandt), Дональд Плезенс (Ernst Stavro Blofeld), Бернард Ли (M), Лоис Максуэлл (Miss Moneypenny), Дезмонд Льюэлин (Q), Чарльз Грей (Dikko Henderson), Цай Чинь (Ling, Chinese Girl in Hong Kong)
Описание: Коварство злодеев из международной преступной организации СПЕКТР не знает границ. На этот раз враги человечества пытаются поссорить самые могущественные государства мира и тем самым спровоцировать начало ядерной войны. До полного уничтожения жизни на Земле остаются считанные мгновения.
В такой ситуации запаникует кто угодно, но только не Джеймс Бонд. Не теряя достоинства и обаяния, он всегда достигает необходимого результата. На этот раз события разворачиваются в Японии, а значит, приключения с кровожадными ниндзями и экзотичными гейшами обеспечены…
Качество: HDTVRip
Формат: MKV
Видео кодек: Xvid
Аудио кодек: MPEG Audio Layer 3
Видео: 1280x544 23.98fps Bit rate 4658 Kbps
Аудио: MPEG Audio Layer 3 44100Hz stereo Bit rate 320 Kbps

Скриншоты

MI

Format : Matroska
File size : 4.15 GiB
Duration : 1h 56mn
Overall bit rate : 5 079 Kbps
Encoded date : UTC 2007-04-08 17:04:12
Writing application : mkvmerge v2.0.0 ('After The Rain Has Fallen') built on Jan 13 2007 19:58:56
Writing library : libebml v0.7.7 + libmatroska v0.8.0
Video
ID : 1
Format : MPEG-4 Visual
Format profile : Advanced [email protected]
Format settings, BVOP : Yes
Format settings, QPel : No
Format settings, GMC : No warppoints
Format settings, Matrix : Default (MPEG)
Codec ID : XVID
Codec ID/Hint : XviD
Duration : 1h 56mn
Bit rate : 4 658 Kbps
Width : 1 280 pixels
Height : 544 pixels
Display aspect ratio : 2.35:1
Frame rate : 23.976 fps
Color space : YUV
Chroma subsampling : 4:2:0
Bit depth : 8 bits
Scan type : Progressive
Bits/(Pixel*Frame) : 0.279
Stream size : 3.80 GiB (92%)
Writing library : XviD 1.2.0SMP (UTC 2006-01-08)
Audio
ID : 2
Format : MPEG Audio
Format version : Version 1
Format profile : Layer 3
Mode : Joint stereo
Codec ID : A_MPEG/L3
Codec ID/Hint : MP3
Duration : 1h 56mn
Bit rate mode : Constant
Bit rate : 320 Kbps
Channel(s) : 2 channels
Sampling rate : 44.1 KHz
Stream size : 267 MiB (6%)
Language : Russian

На секретной службе её величества / On Her Majesty's Secret Service

Год выпуска: 1969
Слоган: «Far up! Far out! Far more! James Bond 007 is back!»
Страна: Великобритания
Жанр: шпионский боевик
Продолжительность: 02:22:12
Перевод: Профессиональный (полное дублирование)
Режиссёр: Питер Хант / Peter R. Hunt
Сценарий: Ян Флеминг, Ричард Мэйбаум, Саймон Рэйвен
Продюсер: Альберт Р. Брокколи, Хэрри Солтцмэн, Стэнли Сопел
Оператор: Майкл Рид
Композитор: Джон Бэрри
В ролях: Джордж Лэзенби, Дайана Ригг, Телли Савалас, Габриэле Ферцетти, Ильзе Штеппат, Анджела Скулар, Лоис Максуэлл, Кэтрин Шелл, Джордж Бейкер, Бернард Ли
Описание: Идя по следу своего старого врага Блюфельда, Бонд оказывается в Португалии, где он безумно влюбляется в необыкновенно красивую девушку, которая ко всему прочему является дочерью короля преступного мира. Используя связи своего потенциального свекра, он обнаруживает секретную лабораторию, замаскированную под частную клинику, где Блюфельд разрабатывает новый смертоносный вирус.
Возлюбленная Бонда попадает в лапы к негодяю и теперь одним махом Бонд может спасти человечество от вымирания, доказать девушке серьезность своих отношений, свести счеты с Блюфельдом
Качество: HDTVRip
Формат: MKV
Видео кодек: Xvid
Аудио кодек: AC3
Видео: 1280x544 23.98fps Bit rate 3757 Kbps
Аудио: Dolby AC3 48000Hz 6ch Bit rate 448 Kbps

Скриншоты

MI

Format : Matroska
File size : 4.26 GiB
Duration : 2h 22mn
Overall bit rate : 4 290 Kbps
Encoded date : UTC 2007-04-18 02:54:57
Writing application : mkvmerge v2.0.0 ('After The Rain Has Fallen') built on Jan 13 2007 19:58:56
Writing library : libebml v0.7.7 + libmatroska v0.8.0
Video
ID : 1
Format : MPEG-4 Visual
Format profile : Advanced [email protected]
Format settings, BVOP : Yes
Format settings, QPel : No
Format settings, GMC : No warppoints
Format settings, Matrix : Default (MPEG)
Codec ID : XVID
Codec ID/Hint : XviD
Duration : 2h 22mn
Bit rate : 3 757 Kbps
Width : 1 280 pixels
Height : 544 pixels
Display aspect ratio : 2.35:1
Frame rate : 23.976 fps
Color space : YUV
Chroma subsampling : 4:2:0
Bit depth : 8 bits
Scan type : Progressive
Bits/(Pixel*Frame) : 0.225
Stream size : 3.73 GiB (88%)
Writing library : XviD 1.2.0SMP (UTC 2006-01-08)
Audio
ID : 2
Format : AC-3
Format/Info : Audio Coding 3
Mode extension : CM (complete main)
Codec ID : A_AC3
Duration : 2h 22mn
Bit rate mode : Constant
Bit rate : 448 Kbps
Channel(s) : 6 channels
Channel positions : Front: L C R, Side: L R, LFE
Sampling rate : 48.0 KHz
Bit depth : 16 bits
Stream size : 456 MiB (10%)
Language : Russian

Бриллианты навсегда / Diamonds Are Forever

Год выпуска: 1971
Слоган: «"Diamonds Are Forever"...forever...forever...forever...»
Страна: США, Великобритания
Жанр: шпионский боевик
Продолжительность: 02:00:06
Перевод: Профессиональный (полное дублирование)
Режиссёр: Гай Хэмилтон / Guy Hamilton
Сценарий: Ян Флеминг / Ian Fleming, Роальд Даль / Roald Dahl, Харольд Джек Блум / Harold Jack Bloom
Продюсер: Альберт Р. Брокколи / Albert R. Broccoli, Хэрри Солтцмэн / Harry Saltzman Оператор: Фредди Янг / Freddie Young
Композитор: Джон Бэрри / John Barry, Монти Норман / Monty Norman
В ролях: Шон Коннери, Джилл Ст. Джон, Чарльз Грей, Лана Вуд, Джимми Дин, Брюс Сабот, Паттер Смит, Брюс Гловер, Норман Бёртон, Джозеф Фюрст
Описание: На этот раз Джеймс Бонд получает миссию расследовать похищение огромной партии южно-африканских бриллиантов. Распутывая это непростое дело, Бонд выходит на след своего заклятого врага Блюфельда. Оказывается, что бриллианты нужны ему для увеличения мощности своего гигантского космического лазера, используя который он заставит детонировать все атомные боеголовки, ракеты и подводные лодки.
Качество: HDTVRip
Формат: MKV
Видео кодек: H264
Аудио кодек: AC3
Видео: MPEG4 Video (H264) 1280x546 23.98fps Bit rate 7499 Kbps
Аудио: Dolby AC3 48000Hz 6ch Bit rate 448 Kbps

Скриншоты

MI

Format : Matroska
File size : 7.62 GiB
Duration : 2h 0mn
Overall bit rate : 9 085 Kbps
Movie name : -Jackal-
Encoded date : UTC 2011-02-16 15:43:04
Writing application : mkvmerge v3.2.0 ('Beginnings') built on Feb 12 2010 16:46:17
Writing library : libebml v0.7.9 + libmatroska v0.8.1
Video
ID : 1
Format : AVC
Format/Info : Advanced Video Codec
Format profile : [email protected]
Format settings, CABAC : Yes
Format settings, ReFrames : 11 frames
Muxing mode : Container [email protected]
Codec ID : V_MPEG4/ISO/AVC
Duration : 2h 0mn
Bit rate : 7 499 Kbps
Width : 1 280 pixels
Height : 546 pixels
Display aspect ratio : 2.35:1
Frame rate : 23.976 fps
Color space : YUV
Chroma subsampling : 4:2:0
Bit depth : 8 bits
Scan type : Progressive
Bits/(Pixel*Frame) : 0.448
Stream size : 6.14 GiB (81%)
Title : x264 2 pass
Writing library : x264 core 104 r1688 0b36c6d
Encoding settings : cabac=1 / ref=11 / deblock=1:-3:-3 / analyse=0x3:0x113 / me=umh / subme=10 / psy=1 / psy_rd=1.00:0.00 / mixed_ref=1 / me_range=64 / chroma_me=1 / trellis=2 / 8x8dct=1 / cqm=0 / deadzone=21,11 / fast_pskip=0 / chroma_qp_offset=-2 / threads=12 / sliced_threads=0 / nr=0 / decimate=1 / interlaced=0 / constrained_intra=0 / bframes=8 / b_pyramid=2 / b_adapt=2 / b_bias=0 / direct=3 / weightb=1 / open_gop=0 / weightp=2 / keyint=240 / keyint_min=24 / scenecut=40 / intra_refresh=0 / rc_lookahead=40 / rc=2pass / mbtree=1 / bitrate=7499 / ratetol=1.0 / qcomp=0.60 / qpmin=10 / qpmax=51 / qpstep=4 / cplxblur=20.0 / qblur=0.5 / vbv_maxrate=38000 / vbv_bufsize=30000 / ip_ratio=1.40 / aq=1:1.00 / nal_hrd=none
Language : English
Audio #1
ID : 2
Format : AC-3
Format/Info : Audio Coding 3
Mode extension : CM (complete main)
Codec ID : A_AC3
Duration : 2h 0mn
Bit rate mode : Constant
Bit rate : 448 Kbps
Channel(s) : 6 channels
Channel positions : Front: L C R, Side: L R, LFE
Sampling rate : 48.0 KHz
Bit depth : 16 bits
Stream size : 385 MiB (5%)
Title : AC3 5.1, 448 kbps (многоголосый, Киномания)
Language : Russian
Audio #2
ID : 3
Format : AC-3
Format/Info : Audio Coding 3
Mode extension : CM (complete main)
Codec ID : A_AC3
Duration : 2h 0mn
Bit rate mode : Constant
Bit rate : 384 Kbps
Channel(s) : 2 channels
Channel positions : Front: L R
Sampling rate : 48.0 KHz
Bit depth : 16 bits
Stream size : 330 MiB (4%)
Title : AC3 2.0, 384 kbps (многоголосый, SomeWax)
Language : Russian
Audio #3
ID : 4
Format : DTS
Format/Info : Digital Theater Systems
Codec ID : A_DTS
Duration : 2h 0mn
Bit rate mode : Constant
Bit rate : 755 Kbps
Channel(s) : 6 channels
Channel positions : Front: L C R, Side: L R, LFE
Sampling rate : 48.0 KHz
Bit depth : 24 bits
Stream size : 648 MiB (8%)
Title : DTS 5.1, 755 kbps (одноголосый, Ю. Живов)
Language : Russian

Живи и дай умереть / Live and Let Die

Год выпуска: 1973
Слоган: «Get Moore!»
Страна: Великобритания
Жанр: шпионский боевик
Продолжительность: 02:01:31
Перевод: Профессиональный (полное дублирование)
Режиссёр: Гай Хэмилтон
Сценарий: Том Манкевич, Ян Флеминг
Продюсер: Альберт Р. Брокколи, Хэрри Солтцмэн
Оператор: Тед Мур
Композитор: Джордж Мартин, Линда МакКартни, Пол МакКартни,
В ролях: Роджер Мур, Яфет Котто, Джейн Сеймур, Клифтон Джеймс, Джулиус Харрис, Джеффри Холдер, Дэвид Хедисон, Глория Хендри, Бернард Ли, Лоис Максуэлл
Описание: Торговля наркотиками в США принимает угрожающие масштабы. Подрывается генофонд нации, от былой экономической мощи не остается и следа. Виной всему является таинственный наркобарон, король преступного мира Док. Кананга.
Остановить злодея берется суперагент Джеймс Бонд. Для него нет ничего невозможного, ведь он экипирован новейшими разработками шпионской мысли, а умело используя свои таланты в обращении с женским полом, он с легкостью получает любую интересующую его информацию. Но как известно, мафия не прощает обид и теперь жизнь самого удачливого агента оказывается под угрозой.
Качество: HDTVRip
Формат: MKV
Видео кодек: Xvid
Аудио кодек: AC3
Видео: Xvid 1280x688 23.98fps Bit rate 4457 Kbps
Аудио: Dolby AC3 48000Hz 6ch Bit rate 448 Kbps

Скриншоты

MI

Format : Matroska
File size : 4.25 GiB
Duration : 2h 1mn
Overall bit rate : 5 004 Kbps
Encoded date : UTC 2007-04-19 20:20:23
Writing application : mkvmerge v2.0.0 ('After The Rain Has Fallen') built on Jan 13 2007 19:58:56
Writing library : libebml v0.7.7 + libmatroska v0.8.0
Video
ID : 1
Format : MPEG-4 Visual
Format profile : Advanced [email protected]
Format settings, BVOP : Yes
Format settings, QPel : No
Format settings, GMC : No warppoints
Format settings, Matrix : Default (MPEG)
Codec ID : XVID
Codec ID/Hint : XviD
Duration : 2h 1mn
Bit rate : 4 457 Kbps
Width : 1 280 pixels
Height : 688 pixels
Display aspect ratio : 1.860
Frame rate : 23.976 fps
Color space : YUV
Chroma subsampling : 4:2:0
Bit depth : 8 bits
Scan type : Progressive
Bits/(Pixel*Frame) : 0.211
Stream size : 3.78 GiB (89%)
Writing library : XviD 1.2.0SMP (UTC 2006-01-08)
Audio
ID : 2
Format : AC-3
Format/Info : Audio Coding 3
Mode extension : CM (complete main)
Codec ID : A_AC3
Duration : 2h 1mn
Bit rate mode : Constant
Bit rate : 448 Kbps
Channel(s) : 6 channels
Channel positions : Front: L C R, Side: L R, LFE
Sampling rate : 48.0 KHz
Bit depth : 16 bits
Stream size : 389 MiB (9%)
Language : Russian

Человек с золотым пистолетом / The Man with the Golden Gun

Год выпуска: 1974
Слоган: «The world's greatest villains have tried to kill James Bond. Now it's Scaramanga's turn to try»
Страна: Великобритания
Жанр: шпионский боевик
Продолжительность: 02:05:05
Перевод: Профессиональный (полное дублирование)
Режиссёр: Гай Хэмилтон
Сценарий: Ричард Мэйбаум, Том Манкевич, Ян Флеминг
Продюсер: Альберт Р. Брокколи, Чарльз Орм, Хэрри Солтцмэн
Оператор: Тед Мур, Освальд Моррис
Композитор: Джон Бэрри, Монти Норман
В ролях: Роджер Мур / Roger Moore, Кристофер Ли / Christopher Lee, Бритт Эклэнд / Britt Ekland, Мод Эдамс / Maud Adams, Луис Максвелл / Lois Maxwell, Клифтон Джеймс / Clifton James
Описание: Агент 007 получает задание найти и вернуть секретное оборудование, с помощью которого террористы смогут использовать солнечную энергию как мощнейшее оружие. Чтобы помешать Бонду выполнить задание, на него натравливают самого опасного и неуловимого наемного убийцу по имени Скараманга. Этот мерзавец отличается особым шиком, ведь в своей работе он использует оружие, изготовленное из чистого золота.
Качество: HDTVRip
Формат: MKV
Видео кодек: Xvid
Аудио кодек: AC3
Видео: Xvid 1280x688 23.98fps Bit rate 4320 Kbps
Аудио: Dolby AC3 48000Hz 6ch Bit rate 384 Kbps

Скриншоты

MI

Format : Matroska
File size : 4.19 GiB
Duration : 2h 5mn
Overall bit rate : 4 800 Kbps
Encoded date : UTC 2007-04-17 07:52:08
Writing application : mkvmerge v2.0.0 ('After The Rain Has Fallen') built on Jan 13 2007 19:58:56
Writing library : libebml v0.7.7 + libmatroska v0.8.0
Video
ID : 1
Format : MPEG-4 Visual
Format profile : Advanced [email protected]
Format settings, BVOP : Yes
Format settings, QPel : No
Format settings, GMC : No warppoints
Format settings, Matrix : Default (MPEG)
Codec ID : XVID
Codec ID/Hint : XviD
Duration : 2h 5mn
Bit rate : 4 320 Kbps
Width : 1 280 pixels
Height : 688 pixels
Display aspect ratio : 1.860
Frame rate : 23.976 fps
Color space : YUV
Chroma subsampling : 4:2:0
Bit depth : 8 bits
Scan type : Progressive
Bits/(Pixel*Frame) : 0.205
Stream size : 3.77 GiB (90%)
Writing library : XviD 1.2.0SMP (UTC 2006-01-08)
Audio
ID : 2
Format : AC-3
Format/Info : Audio Coding 3
Mode extension : CM (complete main)
Codec ID : A_AC3
Duration : 2h 5mn
Bit rate mode : Constant
Bit rate : 384 Kbps
Channel(s) : 6 channels
Channel positions : Front: L C R, Side: L R, LFE
Sampling rate : 48.0 KHz
Bit depth : 16 bits
Stream size : 344 MiB (8%)
Language : Russian

Шпион, который меня любил / The Spy Who Loved Me

Год выпуска: 1977
Слоган: «It's the BIGGEST. It's the BEST. It's BOND. And B-E-Y-O-N-D»
Страна: Великобритания
Жанр: шпионский боевик
Продолжительность: 02:05:35
Перевод: Профессиональный (полное дублирование)
Режиссёр: Льюис Гилберт / Lewis Gilbert
Сценарий: Ян Флеминг, Кристофер Вуд, Ричард Мэйбаум
Продюсер: Альберт Р. Брокколи, Уильям П. Картлидж
Оператор: Клод Ренуар
Композитор: Марвин Хэмлиш, Иоганн Себастьян Бах, Вольфганг Амадей Моцарт
В ролях: Роджер Мур, Барбара Бах, Курд Юргенс, Ричард Кил, Кэролайн Манро, Уолтер Готелл, Джефри Кин, Бернард Ли, Джордж Бейкер, Майкл Билингтон
Описание: Спасая мир от безумного злодея Стромберга, который разрабатывает план по уничтожению жизни на земле с помощью сверхмощного звука, Джеймс Бонд знакомится с очаровательной русской разведчицей. Вместе они вступают в неравную схватку с негодяем и его преданным слугой Джозом.
Это по-настоящему гигантского размера детина с железными зубами, которыми он с легкостью перекусывает толстый стальной трос. Для того чтобы уравнять силы Бонду предоставляют абсолютно эксклюзивный спортивный автомобиль «Лотос», который может плавать под водой и стрелять разными видами ракет.
Качество: HDTVRip
Формат: MKV
Видео кодек: Xvid
Аудио кодек: AC3
Видео: Xvid 1280x544 23.98fps Bit rate 4299 Kbps
Аудио: Dolby AC3 48000Hz 6ch Bit rate 384 Kbps

Скриншоты

MI

Format : Matroska
File size : 4.19 GiB
Duration : 2h 5mn
Overall bit rate : 4 778 Kbps
Encoded date : UTC 2011-02-18 04:18:34
Writing application : mkvmerge v3.2.0 ('Beginnings') built on Feb 12 2010 16:46:17
Writing library : libebml v0.7.9 + libmatroska v0.8.1
Video
ID : 1
Format : MPEG-4 Visual
Format profile : Advanced [email protected]
Format settings, BVOP : Yes
Format settings, QPel : No
Format settings, GMC : No warppoints
Format settings, Matrix : Default (MPEG)
Codec ID : XVID
Codec ID/Hint : XviD
Duration : 2h 5mn
Bit rate : 4 299 Kbps
Width : 1 280 pixels
Height : 544 pixels
Display aspect ratio : 2.35:1
Frame rate : 23.976 fps
Color space : YUV
Chroma subsampling : 4:2:0
Bit depth : 8 bits
Scan type : Progressive
Bits/(Pixel*Frame) : 0.258
Stream size : 3.77 GiB (90%)
Writing library : XviD 1.2.0SMP (UTC 2006-01-08)
Language : English
Audio
ID : 2
Format : AC-3
Format/Info : Audio Coding 3
Mode extension : CM (complete main)
Codec ID : A_AC3
Duration : 2h 5mn
Bit rate mode : Constant
Bit rate : 384 Kbps
Channel(s) : 6 channels
Channel positions : Front: L C R, Side: L R, LFE
Sampling rate : 48.0 KHz
Bit depth : 16 bits
Stream size : 345 MiB (8%)
Language : Russian

Лунный гонщик (Проект "Мунрейкер") / Moonraker

Год выпуска: 1979
Слоган: «From the most exotic locations on Earth, MOONRAKER will take you out of this world!»
Страна: Франция, Великобритания
Жанр: шпионский боевик
Продолжительность: 02:06:17
Перевод: Профессиональный (полное дублирование)
Режиссёр: Льюис Гилберт
Сценарий: Кристофер Вуд, Ян Флеминг
Продюсер: Альберт Р. Брокколи, Уильям П. Картлидж, Майкл Дж. Уилсон
Оператор: Жан Турнье
Композитор: Джон Бэрри
В ролях: Роджер Мур, Лоис Чайлз, Микаэль Лонсдаль, Ричард Кил, Коринн Клери, Бернард Ли, Джефри Кин, Дезмонд Льюэлин, Лоис Максуэлл, Тоширо Суга
Описание: За маской добропорядочного американского миллиардера скрывается истинное лицо сумасшедшего ученого. Он вынашивает безумный по своей жестокости план: устроить на Земле апокалипсис, и когда на планете не останется ни одной живой души, населить ее выращенными на космической станции суперлюдьми.
Чтобы помешать планам Дракса, Бонду приходится побывать в Калифорнии, Бразилии, джунглях Амазонки и, в конце концов, отправиться в космос, где и произойдут самые главные события.
Качество: HDTVRip
Формат: AVI
Видео кодек: Xvid
Аудио кодек: AC3
Видео: Xvid 1280x544 23.98fps Bit rate 4367 Kbps
Аудио: Dolby AC3 48000Hz 6ch Bit rate 384 Kbps

Скриншоты

MI

Format : AVI
Format/Info : Audio Video Interleave
Format profile : OpenDML
File size : 4.20 GiB
Duration : 2h 6mn
Overall bit rate : 4 760 Kbps
Writing application : VirtualDubMod 1.5.10.2 (build 2540/release)
Writing library : VirtualDubMod build 2540/release
Video
ID : 0
Format : MPEG-4 Visual
Format profile : Advanced [email protected]
Format settings, BVOP : Yes
Format settings, QPel : No
Format settings, GMC : No warppoints
Format settings, Matrix : Default (MPEG)
Muxing mode : Packed bitstream
Codec ID : XVID
Codec ID/Hint : XviD
Duration : 2h 6mn
Bit rate : 4 367 Kbps
Width : 1 280 pixels
Height : 544 pixels
Display aspect ratio : 2.35:1
Frame rate : 23.976 fps
Color space : YUV
Chroma subsampling : 4:2:0
Bit depth : 8 bits
Scan type : Progressive
Bits/(Pixel*Frame) : 0.262
Stream size : 3.85 GiB (92%)
Writing library : XviD 1.2.0SMP (UTC 2006-01-08)
Audio
ID : 1
Format : AC-3
Format/Info : Audio Coding 3
Mode extension : CM (complete main)
Codec ID : 2000
Duration : 2h 6mn
Bit rate mode : Constant
Bit rate : 384 Kbps
Channel(s) : 6 channels
Channel positions : Front: L C R, Side: L R, LFE
Sampling rate : 48.0 KHz
Bit depth : 16 bits
Stream size : 347 MiB (8%)
Alignment : Split accross interleaves
Interleave, duration : 42 ms (1.00 video frame)
Interleave, preload duration : 500 ms

Только для твоих глаз / For Your Eyes Only

Год выпуска: 1981
Слоган: «No one comes close to JAMES BOND 007»
Страна: Великобритания
Жанр: шпионский боевик
Продолжительность: 02:07:54
Перевод: Профессиональный (полное дублирование)
Режиссёр: Джон Глен
Сценарий: Ричард Мэйбаум, Майкл Дж. Уилсон, Ян Флеминг
Продюсер: Альберт Р. Брокколи, Том Пивснер, Майкл Дж. Уилсон
Оператор: Алан Хьюм
Композитор: Билл Конти
В ролях: Роджер Мур /Roger Moore/, Кароль Буке /Carole Bouquet/, Топол /Topol/, Линн-Холли Джонсон /Lynn-Holly Johnson/, Джулиан Гловер /Julian Glover/, Джилл Беннетт /Jill Bennett.
Описание: На этот раз агенту 007 предстоит захватывающая дух гонка с русскими коллегами. Дело в том, что Британские военные умудрились утопить в Ионическом море абсолютно секретное оборудование. Если аппаратура попадет в руки советским разведчикам, это может привести к ужасающим для Великобритании и всего мира последствиям. Бонду приходится с безумной скоростью прокатиться по трассе для бобслея, повисеть на одной руке над бездонной пропастью, участвовать в захватывающем дух подводном сражении с применением новейшего шпионского оружия. В этом непростом соревновании Бонду помогает великолепная красавица Милена, которая одинаково хорошо владеет боевым арбалетом и, что еще более опасно, искусством обольщения.
Качество: HDTVRip
Формат: MKV
Видео кодек: H264
Аудио кодек: AC3
Видео: MPEG4 Video (H264) 1280x544 23.98fps Bit rate 4504 Kbps
Аудио: Dolby AC3 48000Hz 6ch Bit rate 384 Kbps

Скриншоты

MI

Format : Matroska
File size : 4.37 GiB
Duration : 2h 7mn
Overall bit rate : 4 890 Kbps
Encoded date : UTC 2011-02-16 04:46:25
Writing application : mkvmerge v3.2.0 ('Beginnings') built on Feb 12 2010 16:46:17
Writing library : libebml v0.7.9 + libmatroska v0.8.1
Video
ID : 1
Format : AVC
Format/Info : Advanced Video Codec
Format profile : [email protected]
Format settings, CABAC : Yes
Format settings, ReFrames : 10 frames
Muxing mode : Container [email protected]
Codec ID : V_MPEG4/ISO/AVC
Duration : 2h 7mn
Bit rate : 4 504 Kbps
Width : 1 280 pixels
Height : 544 pixels
Display aspect ratio : 2.35:1
Frame rate : 23.976 fps
Color space : YUV
Chroma subsampling : 4:2:0
Bit depth : 8 bits
Scan type : Progressive
Bits/(Pixel*Frame) : 0.270
Stream size : 3.94 GiB (90%)
Writing library : x264 core 57 svn-709C
Encoding settings : cabac=1 / ref=7 / deblock=1:0:0 / analyse=0x3:0x133 / me=umh / fpel_cmp=sad / subme=7 / me-prepass=0 / brdo=1 / mixed_ref=1 / me_range=16 / chroma_me=1 / trellis=1 / 8x8dct=1 / cqm=0 / deadzone=21,11 / chroma_qp_offset=0 / threads=6 / nr=0 / decimate=1 / mbaff=0 / bframes=3 / b_pyramid=1 / b_adapt=1 / b_bias=0 / direct=1 / wpredb=1 / bime=1 / keyint=240 / keyint_min=24 / scenecut=40(pre) / rc=2pass / bitrate=4504 / ratetol=1.0 / rceq='blurCplx^(1-qComp)' / qcomp=0.60 / qpmin=10 / qpmax=51 / qpstep=4 / cplxblur=20.0 / qblur=0.5 / ip_ratio=1.40 / pb_ratio=1.30
Language : English
Audio
ID : 2
Format : AC-3
Format/Info : Audio Coding 3
Mode extension : CM (complete main)
Codec ID : A_AC3
Duration : 2h 7mn
Bit rate mode : Constant
Bit rate : 384 Kbps
Channel(s) : 6 channels
Channel positions : Front: L C R, Side: L R, LFE
Sampling rate : 48.0 KHz
Bit depth : 16 bits
Stream size : 351 MiB (8%)
Language : Russian

Осьминожка / Octopussy

Год выпуска: 1983
Слоган: «Nobody does him better.»
Страна: США, Великобритания,
Жанр: шпионский боевик
Продолжительность: 02:10:38
Перевод: Профессиональный (полное дублирование)
Режиссёр: Джон Глен
Сценарий: Джордж МакДоналд Фрейзер, Ричард Мэйбаум, Майкл Дж. Уилсон
Продюсер: Альберт Р. Брокколи, Том Пивснер, Майкл Дж. Уилсон
Оператор: Алан Хьюм
Композитор: Джон Бэрри, Монти Норман, Джон Филип Суза
В ролях: Роджер Мур, Мод Эдамс, Луи Журдан, Кристина Уэйборн, Кабир Беди, Стивен Беркофф, Дэвид Мейер, Тони Мейер, Дезмонд Льюэлин, Роберт Браун
Описание: При таинственных обстоятельствах погибает коллега Джеймса Бонда агент 009. Чтобы разобраться в этом преступлении Бонду предстоит прокатиться в Индию, где он встречается с роковой женщиной, умопомрачительной красоткой по прозвищу Осьминожка. Активно пользуясь своими глубочайшими знаниями женской психологии, агент 007 выходит на след абсолютно безумного и столь же амбициозного отставного русского генерала, который мечтает развязать третью мировую войну и захватить все Европейские государства. Несмотря на то, что Бонд использует всевозможные приспособления из шпионского арсенала, даже летает на миниатюрном реактивном самолетике, оставить его в живых или убить решает таинственная красавица.
Качество: HDTVRip
Формат: MKV
Видео кодек: DivX 5
Аудио кодек: AC3
Видео: 1280x544 23.98fps Bit rate 4300 Kbps
Аудио: Dolby AC3 48000Hz 6ch Bit rate 384 Kbps

Скриншоты

MI

Format : Matroska
File size : 4.36 GiB
Duration : 2h 10mn
Overall bit rate : 4 779 Kbps
Encoded date : UTC 2011-02-18 05:54:42
Writing application : mkvmerge v3.2.0 ('Beginnings') built on Feb 12 2010 16:46:17
Writing library : libebml v0.7.9 + libmatroska v0.8.1
Video
ID : 1
Format : MPEG-4 Visual
Format settings, BVOP : Yes
Format settings, QPel : No
Format settings, GMC : No warppoints
Format settings, Matrix : Default (H.263)
Codec ID : DX50
Codec ID/Hint : DivX 5
Duration : 2h 10mn
Bit rate : 4 300 Kbps
Width : 1 280 pixels
Height : 544 pixels
Display aspect ratio : 2.35:1
Frame rate : 23.976 fps
Color space : YUV
Chroma subsampling : 4:2:0
Bit depth : 8 bits
Scan type : Progressive
Bits/(Pixel*Frame) : 0.258
Stream size : 3.92 GiB (90%)
Writing library : DivX 1974
Audio
ID : 2
Format : AC-3
Format/Info : Audio Coding 3
Mode extension : CM (complete main)
Codec ID : A_AC3
Duration : 2h 10mn
Bit rate mode : Constant
Bit rate : 384 Kbps
Channel(s) : 6 channels
Channel positions : Front: L C R, Side: L R, LFE
Sampling rate : 48.0 KHz
Bit depth : 16 bits
Stream size : 359 MiB (8%)

Никогда не говори никогда / Never say never again

Год выпуска: 1983
Слоган: «If you haven't seen Sean Connery in 'Never Say Never Again' then you haven't seen James Bond 007!»
Страна: США, Великобритания, Германия (ФРГ)
Жанр: шпионский боевик
Продолжительность: 02:14:03
Перевод: Профессиональный (полное дублирование)
Режиссёр: Ирвин Кершнер
Сценарий: Лоренцо Семпл мл., Йен Ла Френас, Дик Клемент
Продюсер: Майкл Драйхёрст, Кевин МакКлори, Джек Шварцман
Оператор: Дуглас Слоком
Композитор: Мишель Легран
В ролях: Шон Коннери, Ким Бэсинджер, Клаус Мария Брандауэр, Макс Фон Сюдов, Барбара Каррера, Эдвард Фокс, Берни Кэйси, Алек МакКауэн, Пэмела Сэлем, Валери Леон
Описание: 14 фильм о приключениях Джеймса Бонда, выпущенный компанией Warner Bros. и не входящий в коллекцию фильмов об агенте 007 компании MGM Pictures. Это повторение "Шаровой молнии" и триумфальное возвращение Коннери в роли Бонда (после перерыва в 12 лет) с его неотразимым обаянием и неповторимым ироничным юмором. На этот раз агент 007 должен остановить маньяка (Брандауэр), рвущегося к власти над всем миром, не меньше. Помогает в этом злодею очень сексуальная злодейка Барбара Каррера.
Качество: HDTVRip
Формат: MKV
Видео кодек: H264
Аудио кодек: AC3
Видео: MPEG4 Video (H264) 1280x544 23.98fps Bit rate 4282 Kbps
Аудио: Dolby AC3 48000Hz 6ch Bit rate 224 Kbps

Скриншоты

MI

Format : Matroska
File size : 4.22 GiB
Duration : 2h 14mn
Overall bit rate : 4 508 Kbps
Encoded date : UTC 2011-02-16 04:46:02
Writing application : mkvmerge v3.2.0 ('Beginnings') built on Feb 12 2010 16:46:17
Writing library : libebml v0.7.9 + libmatroska v0.8.1
Video
ID : 1
Format : AVC
Format/Info : Advanced Video Codec
Format profile : [email protected]
Format settings, CABAC : Yes
Format settings, ReFrames : 6 frames
Muxing mode : Container [email protected]
Codec ID : V_MPEG4/ISO/AVC
Duration : 2h 14mn
Bit rate : 4 282 Kbps
Width : 1 280 pixels
Height : 544 pixels
Display aspect ratio : 2.35:1
Frame rate : 23.976 fps
Color space : YUV
Chroma subsampling : 4:2:0
Bit depth : 8 bits
Scan type : Progressive
Bits/(Pixel*Frame) : 0.256
Stream size : 3.93 GiB (93%)
Writing library : x264 core 54 svn-628M
Encoding settings : cabac=1 / ref=3 / deblock=1:-2:-1 / analyse=0x3:0x133 / me=umh / subme=6 / brdo=0 / mixed_ref=0 / me_range=12 / chroma_me=1 / trellis=1 / 8x8dct=1 / cqm=0 / deadzone=21,11 / chroma_qp_offset=0 / threads=2 / nr=0 / decimate=1 / mbaff=0 / bframes=3 / b_pyramid=1 / b_adapt=1 / b_bias=0 / direct=3 / wpredb=1 / bime=0 / keyint=250 / keyint_min=25 / scenecut=40(pre) / rc=2pass / bitrate=4282 / ratetol=1.0 / rceq='blurCplx^(1-qComp)' / qcomp=0.60 / qpmin=10 / qpmax=51 / qpstep=4 / cplxblur=20.0 / qblur=0.5 / ip_ratio=1.40 / pb_ratio=1.30
Language : English
Audio
ID : 2
Format : AC-3
Format/Info : Audio Coding 3
Mode extension : CM (complete main)
Codec ID : A_AC3
Duration : 2h 14mn
Bit rate mode : Constant
Bit rate : 224 Kbps
Channel(s) : 2 channels
Channel positions : Front: L R
Sampling rate : 48.0 KHz
Bit depth : 16 bits
Stream size : 215 MiB (5%)
Language : Russian

Вид на убийство / A View To A Kill

Год выпуска: 1985
Слоган: «Has James Bond finally met his match?»
Страна: США, Великобритания
Жанр: шпионский боевик
Продолжительность: 02:11:08
Перевод: Профессиональный (полное дублирование)
Режиссёр: Джон Глен
Сценарий: Ричард Мэйбаум, Майкл Дж. Уилсон, Ян Флеминг
Продюсер: Альберт Р. Брокколи, Том Пивснер, Майкл Дж. Уилсон
Оператор: Алан Хьюм
Композитор: Джон Бэрри, Дюран Дюран, Монти Норман
В ролях: Роджер Мур, Кристофер Уокен, Грейс Джонс, Элисон Дуди, Таня Робертс, Патрик Макни
Описание: На этот раз агент 007 сражается сразу с двумя преступниками. Одного из них зовут Макс Зорин (Кристофер Уокен – «Сонная лощина»), он продукт генетических исследований нацистов. Его помощница по имени Мэй-Дэй – настоящая экстремалка с безудержной тягой к преступлениям. Макс задумал уничтожить «Силиконовую долину» - центр научно-технических исследований США. Чтобы помешать преступникам осуществить их коварные планы, Бонду приходится съездить сначала в СССР, где в условиях Крайнего Севера его атакуют вооруженные до зубов боевики, оснащенные снегоходами, вертолетами и даже лыжами, затем в Париж, а потом в Сан-Франциско, где на всемирно известном висячем мосту через пролив Золотые Ворота и разворачиваются события, от которых зависит будущее целого государства.
Качество: HDTVRip
Формат: MKV
Видео кодек: Xvid
Аудио кодек: AC3
Видео: Xvid 1280x544 23.98fps Bit rate 4100 Kbps
Аудио: Dolby AC3 48000Hz 6ch Bit rate 448 Kbps

Скриншоты

MI

Format : Matroska
File size : 4.25 GiB
Duration : 2h 11mn
Overall bit rate : 4 640 Kbps
Encoded date : UTC 2011-02-18 04:19:45
Writing application : mkvmerge v3.2.0 ('Beginnings') built on Feb 12 2010 16:46:17
Writing library : libebml v0.7.9 + libmatroska v0.8.1
Video
ID : 1
Format : MPEG-4 Visual
Format profile : Advanced [email protected]
Format settings, BVOP : Yes
Format settings, QPel : No
Format settings, GMC : No warppoints
Format settings, Matrix : Default (MPEG)
Codec ID : XVID
Codec ID/Hint : XviD
Duration : 2h 11mn
Bit rate : 4 100 Kbps
Width : 1 280 pixels
Height : 544 pixels
Display aspect ratio : 2.35:1
Frame rate : 23.976 fps
Color space : YUV
Chroma subsampling : 4:2:0
Bit depth : 8 bits
Scan type : Progressive
Bits/(Pixel*Frame) : 0.246
Stream size : 3.76 GiB (88%)
Writing library : XviD 1.2.0SMP (UTC 2006-01-08)
Audio
ID : 2
Format : AC-3
Format/Info : Audio Coding 3
Mode extension : CM (complete main)
Codec ID : A_AC3
Duration : 2h 11mn
Bit rate mode : Constant
Bit rate : 448 Kbps
Channel(s) : 6 channels
Channel positions : Front: L C R, Side: L R, LFE
Sampling rate : 48.0 KHz
Bit depth : 16 bits
Stream size : 420 MiB (10%)
Language : Russian

Искры из глаз / The Living Daylights

Год выпуска: 1987
Слоган: «Living on the edge. It's the only way he lives.»
Страна: США, Великобритания
Жанр: шпионский боевик
Продолжительность: 02:10:44
Перевод: Профессиональный (полное дублирование)
Режиссёр: Джон Глен
Сценарий: Ричард Мэйбаум, Майкл Дж. Уилсон, Ян Флеминг
Продюсер: Альберт Р. Брокколи, Барбара Брокколи, Том Пивснер
Оператор: Алек Миллз
Композитор: Джон Бэрри, Пол Ваактаар, Монти Норман
В ролях: Тимоти Далтон, Мэриам д'Або, Ерун Краббе, Джо Дон Бейкер, Джон Рис-Дэвис, Арт Малик, Андреас Висневски, Томас Уитли, Дезмонд Льюэлин, Роберт Браун
Описание: Непрекращающееся ни на секунду действие переносит нас со скалы Гибралтара в концертный зал в Чехословакии, потом в славный город Танжер, оттуда — в зону боевых действий в Афганистане. Бывший сотрудник КГБ, двойной агент, продажный советский генерал. Контрабандист и предатель снабжает оружием Афганского наркобарона и террориста.
Качество: HDTVRip
Формат: MKV
Видео кодек: Xvid
Аудио кодек: AC3
Видео: Xvid 1280x544 23.98fps Bit rate 4115 Kbps
Аудио: Dolby AC3 48000Hz 6ch Bit rate 448 Kbps

Скриншоты

MI

Format : Matroska
File size : 4.25 GiB
Duration : 2h 10mn
Overall bit rate : 4 656 Kbps
Encoded date : UTC 2007-04-20 17:52:30
Writing application : mkvmerge v2.0.0 ('After The Rain Has Fallen') built on Jan 13 2007 19:58:56
Writing library : libebml v0.7.7 + libmatroska v0.8.0
Video
ID : 1
Format : MPEG-4 Visual
Format profile : Advanced [email protected]
Format settings, BVOP : Yes
Format settings, QPel : No
Format settings, GMC : No warppoints
Format settings, Matrix : Default (MPEG)
Codec ID : XVID
Codec ID/Hint : XviD
Duration : 2h 10mn
Bit rate : 4 115 Kbps
Width : 1 280 pixels
Height : 544 pixels
Display aspect ratio : 2.35:1
Frame rate : 23.976 fps
Color space : YUV
Chroma subsampling : 4:2:0
Bit depth : 8 bits
Scan type : Progressive
Bits/(Pixel*Frame) : 0.246
Stream size : 3.76 GiB (88%)
Writing library : XviD 1.2.0SMP (UTC 2006-01-08)
Audio
ID : 2
Format : AC-3
Format/Info : Audio Coding 3
Mode extension : CM (complete main)
Codec ID : A_AC3
Duration : 2h 10mn
Bit rate mode : Constant
Bit rate : 448 Kbps
Channel(s) : 6 channels
Channel positions : Front: L C R, Side: L R, LFE
Sampling rate : 48.0 KHz
Bit depth : 16 bits
Stream size : 419 MiB (10%)
Language : Russian

Лицензия на убийство / Licence to Kill

Год выпуска: 1989
Слоган: «James Bond is out on his own and out for revenge.»
Страна: США, Великобритания
Жанр: шпионский боевик
Продолжительность: 02:12:55
Перевод: Профессиональный (полное дублирование)
Режиссёр: Джон Глен
Сценарий: Майкл Дж. Уилсон, Ричард Мэйбаум, Ян Флеминг
Продюсер: Альберт Р. Брокколи, Барбара Брокколи, Том Пивснер
Оператор: Алек Миллз
Композитор: Майкл Кэмен, Дайан Уоррен, Монти Норман
В ролях: Тимоти Далтон /Timothy Dalton/, Кэри Лоуэлл /Carey Lowell/, Роберт Дави /Robert Davi/, Талиса Сото /Talisa Soto/, Энтони Зербе /Anthony Zerbe/, Фрэнк МакРей /Frank McRae/, Дэвид Хедисон /David Hedison/, Уэйн Ньютон /Wayne Newton/, Бенисио Дель Торо /Benicio Del Toro/, Энтони Старк /Anthony Starke/, Эверет МакГилл /Everett McGill/, Дезмонд Льюэлин /Desmond Llewelyn/, Педро Армендарис мл. /Pedro Armendariz Jr./, Роберт Браун /Robert Brown/, Присцилла Барнс /Priscilla Barnes/, Дон Страуд /Don Stroud/, Кэролин Блисс /Caroline Bliss/, Кэри-Хироюки Тагава /Cary-Hiroyuki Tagawa/
Описание: Не успев как следует насладиться прелестями семейной жизни, молодожён, агент ЦРУ и старый друг Джеймса Бонда феликс, на собственной шкуре познаёт всё коварство и жестокость колумбийской наркомафии. Его красавицу жену умышленно лишают жизни, а его самого кидают на съедение акулам. Агента 007 безусловно не устраивает такое отношение к его друзьям и он, нарушив все инструкции и приказы но не забыв прихватить с собой множество хитоумных примочек из шпионского арсенала, отправляется на поиски кровожадного наркоборона.
Качество: HDTVRip
Формат: MKV
Видео кодек: Xvid
Аудио кодек: AC3
Видео: Xvid 1280x544 23.98fps Bit rate 4041 Kbps
Аудио: Dolby AC3 48000Hz 6ch Bit rate 448 Kbps

Скриншоты

MI

Format : Matroska
File size : 4.25 GiB
Duration : 2h 12mn
Overall bit rate : 4 580 Kbps
Encoded date : UTC 2007-04-21 22:29:50
Writing application : mkvmerge v2.0.0 ('After The Rain Has Fallen') built on Jan 13 2007 19:58:56
Writing library : libebml v0.7.7 + libmatroska v0.8.0
Video
ID : 1
Format : MPEG-4 Visual
Format profile : Advanced [email protected]
Format settings, BVOP : Yes
Format settings, QPel : No
Format settings, GMC : No warppoints
Format settings, Matrix : Default (MPEG)
Codec ID : XVID
Codec ID/Hint : XviD
Duration : 2h 12mn
Bit rate : 4 041 Kbps
Width : 1 280 pixels
Height : 544 pixels
Display aspect ratio : 2.35:1
Frame rate : 23.976 fps
Color space : YUV
Chroma subsampling : 4:2:0
Bit depth : 8 bits
Scan type : Progressive
Bits/(Pixel*Frame) : 0.242
Stream size : 3.75 GiB (88%)
Writing library : XviD 1.2.0SMP (UTC 2006-01-08)
Audio
ID : 2
Format : AC-3
Format/Info : Audio Coding 3
Mode extension : CM (complete main)
Codec ID : A_AC3
Duration : 2h 12mn
Bit rate mode : Constant
Bit rate : 448 Kbps
Channel(s) : 6 channels
Channel positions : Front: L C R, Side: L R, LFE
Sampling rate : 48.0 KHz
Bit depth : 16 bits
Stream size : 426 MiB (10%)
Language : Russian

Золотой глаз / GoldenEye

Год выпуска: 1995
Слоган: «There is no substitute.»
Страна: США, Великобритания
Жанр: шпионский боевик
Продолжительность: 02:09:50
Перевод: Профессиональный (полное дублирование)
Режиссёр: Мартин Кэмпбелл
Сценарий: Джефри Кейн, Брюс Файрстин, Ян Флеминг
Продюсер: Барбара Брокколи, Майкл Дж. Уилсон, Том Пивснер
Оператор: Фил Мейхью
Композитор: Эрик Серра
В ролях: Пирс Броснан, Шон Бин, Изабелла Скорупко, Фамке Янссен, Джо Дон Бейкер, Джуди Денч, Готтфрид Джон, Робби Колтрейн, Алан Камминг, Чеки Карио
Описание: Джеймс Бонд отправляется в Россию на поиски террористов захвативших управление новым секретным оружейным комплексом «Золотой глаз». Разработанное для уничтожения любого компьютерного оборудования, в руках негодяев это оружие превращается в мощнейший инструмент давления на правительства экономически развитых государств.
Во время этой чрезвычайно опасной миссии Бонду приходится полетать на вертолете-невидимке, взорвать бронепоезд, совершить увлекательную поездку на танке по Санкт-Петербургу и конечно соблазнить парочку длинноногих красоток.
Качество: HDTVRip
Формат: AVI
Видео кодек: Xvid
Аудио кодек: AC3
Видео: Xvid 1280x544 23.98fps Bit rate 4380 Kbps
Аудио: Dolby AC3 48000Hz 6ch Bit rate 384 Kbps

Скриншоты

MI

Format : AVI
Format/Info : Audio Video Interleave
Format profile : OpenDML
File size : 4.32 GiB
Duration : 2h 9mn
Overall bit rate : 4 763 Kbps
Writing application : VirtualDubMod 1.5.10.1 (build 2439/release)
Writing library : VirtualDubMod build 2439/release
Video
ID : 0
Format : MPEG-4 Visual
Format profile : [email protected]
Format settings, BVOP : Yes
Format settings, QPel : No
Format settings, GMC : No warppoints
Format settings, Matrix : Default (H.263)
Muxing mode : Packed bitstream
Codec ID : XVID
Codec ID/Hint : XviD
Duration : 2h 9mn
Bit rate : 4 380 Kbps
Width : 1 280 pixels
Height : 544 pixels
Display aspect ratio : 2.35:1
Frame rate : 23.976 fps
Color space : YUV
Chroma subsampling : 4:2:0
Bit depth : 8 bits
Scan type : Progressive
Bits/(Pixel*Frame) : 0.262
Stream size : 3.97 GiB (92%)
Writing library : XviD 1.1.0 Beta2 (UTC 2005-04-04)
Audio
ID : 1
Format : AC-3
Format/Info : Audio Coding 3
Mode extension : CM (complete main)
Codec ID : 2000
Duration : 2h 7mn
Bit rate mode : Constant
Bit rate : 384 Kbps
Channel(s) : 6 channels
Channel positions : Front: L C R, Side: L R, LFE
Sampling rate : 48.0 KHz
Bit depth : 16 bits
Stream size : 349 MiB (8%)
Alignment : Split accross interleaves
Interleave, duration : 65 ms (1.57 video frames)
Interleave, preload duration : 64 ms

Завтра не умрет никогда / Tomorrow Never Dies

Год выпуска: 1997
Слоган: «Thе Man. The Number. The License...are all back.»
Страна: США, Великобритания
Жанр: шпионский боевик
Продолжительность: 01:58:59
Перевод: Профессиональный (полное дублирование)
Режиссёр: Роджер Споттисвуд
Сценарий: Брюс Файрстин, Ян Флеминг
Продюсер: Барбара Брокколи, Энтони Вайе, Майкл Дж. Уилсон
Оператор: Роберт Элсвит
Композитор: Дэвид Арнольд, Шерил Кроу, Митчелл Фрум
В ролях: Пирс Броснан, Джонатан Прайс, Мишель Йео, Тери Хэтчер, Рикки Джей, Готц Отто, Джо Дон Бейкер, Винсент Скьявелли, Джуди Денч, Дезмонд Льюэлин
Описание: Медиамагнат Элиот Карвер, один из самых влиятельных и богатых людей планеты. Он хочет присоединить Китай к своей глобальной телекоммуникационной империи. Китай как всегда не спешит с решением, и это выводит Карвера из равновесия. Для достижения своих целей он не остановится ни перед чем. А имея в распоряжении самый эффективный инструмент формирования общественного мнения, он готов даже спровоцировать третью мировую войну. Чтобы предотвратить катастрофу, Джеймсу Бонду необходимо использовать все свои необыкновенные способности, благо прогресс не стоит на месте, и Бонда вовремя снабжают новыми высокотехнологичными разработками из шпионских лабораторий.
Качество: HDTVRip
Формат: MKV
Видео кодек: H264
Аудио кодек: AC3
Видео: MPEG4 Video (H264) 1280x520 23.98fps Bit rate 4670 Kbps
Аудио: Dolby AC3 48000Hz 6ch Bit rate 384 Kbps

Скриншоты

MI

Format : Matroska
File size : 4.20 GiB
Duration : 1h 59mn
Overall bit rate : 5 054 Kbps
Encoded date : UTC 2011-02-16 04:46:40
Writing application : mkvmerge v3.2.0 ('Beginnings') built on Feb 12 2010 16:46:17
Writing library : libebml v0.7.9 + libmatroska v0.8.1
Video
ID : 1
Format : AVC
Format/Info : Advanced Video Codec
Format profile : [email protected]
Format settings, CABAC : Yes
Format settings, ReFrames : 6 frames
Muxing mode : Container [email protected]
Codec ID : V_MPEG4/ISO/AVC
Duration : 1h 59mn
Bit rate : 4 670 Kbps
Width : 1 280 pixels
Height : 520 pixels
Display aspect ratio : 2.462
Frame rate : 23.976 fps
Color space : YUV
Chroma subsampling : 4:2:0
Bit depth : 8 bits
Scan type : Progressive
Bits/(Pixel*Frame) : 0.293
Stream size : 3.80 GiB (90%)
Writing library : x264 core 54 svn-620M
Encoding settings : cabac=1 / ref=3 / deblock=1:-2:-1 / analyse=0x3:0x133 / me=umh / subme=6 / brdo=0 / mixed_ref=0 / me_range=12 / chroma_me=1 / trellis=1 / 8x8dct=1 / cqm=0 / deadzone=21,11 / chroma_qp_offset=0 / threads=2 / nr=0 / decimate=1 / mbaff=0 / bframes=3 / b_pyramid=1 / b_adapt=1 / b_bias=0 / direct=3 / wpredb=1 / bime=0 / keyint=250 / keyint_min=25 / scenecut=40(pre) / rc=2pass / bitrate=4670 / ratetol=1.0 / rceq='blurCplx^(1-qComp)' / qcomp=0.60 / qpmin=10 / qpmax=51 / qpstep=4 / cplxblur=20.0 / qblur=0.5 / ip_ratio=1.40 / pb_ratio=1.30
Language : English
Audio
ID : 2
Format : AC-3
Format/Info : Audio Coding 3
Mode extension : CM (complete main)
Codec ID : A_AC3
Duration : 1h 59mn
Bit rate mode : Constant
Bit rate : 384 Kbps
Channel(s) : 6 channels
Channel positions : Front: L C R, Side: L R, LFE
Sampling rate : 48.0 KHz
Bit depth : 16 bits
Stream size : 327 MiB (8%)
Title : DD 5.1
Language : Russian

И целого мира мало / The World Is Not Enough

Год выпуска: 1999
Слоган: «Bond is Back»
Страна: США, Великобритания
Жанр: шпионский боевик
Продолжительность: 02:07:50
Перевод: Профессиональный (полное дублирование)
Режиссёр: Майкл Эптид
Сценарий: Нил Пёрвис, Роберт Уэйд, Брюс Файрстин
Продюсер: Барбара Брокколи, Найджел Голдсак, Энтони Вайе
Оператор: Эдриан Биддл
Композитор: Дэвид Арнольд, Монти Норман
В ролях: Пирс Броснан, Софи Марсо, Роберт Карлайл, Дэнис Ричардс, Робби Колтрейн, Джуди Денч, Дезмонд Льюэлин, Джон Клиз, Мария Грация Кучинотта, Саманта Бонд
Описание: Ренард, техногенный террорист, обладает необыкновенной, смертельно опасной способностью — он не чувствует боли. Способность эта возникла у него в результате пулевого ранения в голову. Когда Ренард изобретает хитроумную схему, позволяющую взять под контроль все нефтяные ресурсы планеты, Агент 007 становится последней надеждой человечества. Миссия сулит ему как опасности, так и удовольствия — в лице знойной «нефтяной принцессы» и неотразимой ученой. Герою предстоит схватка с безжалостным врагом, который не остановится ни перед чем, претворяя в жизнь свой разрушительный план.
Качество: HDTVRip
Формат: MKV
Видео кодек: Xvid
Аудио кодек: AC3
Видео: 1280x544 23.98fps Bit rate 4146 Kbps
Аудио: Dolby AC3 48000Hz 6ch Bit rate 448 Kbps

Скриншоты

MI

Format : Matroska
File size : 4.19 GiB
Duration : 2h 8mn
Overall bit rate : 4 687 Kbps
Encoded date : UTC 2011-02-16 04:46:55
Writing application : mkvmerge v3.2.0 ('Beginnings') built on Feb 12 2010 16:46:17
Writing library : libebml v0.7.9 + libmatroska v0.8.1
Video
ID : 1
Format : MPEG-4 Visual
Format profile : Advanced [email protected]
Format settings, BVOP : Yes
Format settings, QPel : No
Format settings, GMC : No warppoints
Format settings, Matrix : Default (MPEG)
Codec ID : XVID
Codec ID/Hint : XviD
Duration : 2h 8mn
Bit rate : 4 146 Kbps
Width : 1 280 pixels
Height : 544 pixels
Display aspect ratio : 2.35:1
Frame rate : 23.976 fps
Color space : YUV
Chroma subsampling : 4:2:0
Bit depth : 8 bits
Scan type : Progressive
Bits/(Pixel*Frame) : 0.248
Stream size : 3.71 GiB (88%)
Writing library : XviD 1.2.0SMP (UTC 2006-01-08)
Audio
ID : 2
Format : AC-3
Format/Info : Audio Coding 3
Mode extension : CM (complete main)
Codec ID : A_AC3
Duration : 2h 8mn
Bit rate mode : Constant
Bit rate : 448 Kbps
Channel(s) : 6 channels
Channel positions : Front: L C R, Side: L R, LFE
Sampling rate : 48.0 KHz
Bit depth : 16 bits
Stream size : 410 MiB (10%)
Language : Russian

Умри, но не сейчас / Die Another Day

Год выпуска: 2002
Слоган: «Events don't get any bigger than...»
Страна: США, Великобритания
Жанр: шпионский боевик
Продолжительность: 02:12:23
Перевод: Профессиональный (полное дублирование)
Режиссёр: Ли Тамахори
Сценарий: Нил Пёрвис, Роберт Уэйд, Ян Флеминг
Продюсер: Барбара Брокколи, Каллум МакДугалл, Энтони Вайе
Оператор: Дэвид Тэттерсолл
Композитор: Дэвид Арнольд
В ролях: Пирс Броснан, Холли Берри, Тоби Стивенс, Розамунд Пайк, Рик Юн, Джуди Денч, Джон Клиз, Майкл Мэдсен, Уилл Юн Ли, Кеннет Цан
Описание: На этот раз Джеймс Бонд в глубокой конспирации проводит операцию в Северной Корее. Однако его разоблачают, после чего Бонд оказывается за решеткой.
Сумев выбраться из плена только через несколько месяцев 007 возвращается к своей привычной жизни, однако вскоре ему вновь приходится вступить в противоборство со своими корейскими «друзьями» — он узнает о плане британского миллиардера Густава Грейвса создать супероружие, и о его взаимодействии на этом поприще с корейскими военными…
Качество: HDTVRip
Формат: MKV
Видео кодек: Xvid
Аудио кодек: AC3
Видео: 1280x544 23.98fps Bit rate 3872 Kbps
Аудио: Dolby AC3 48000Hz 6ch Bit rate 384 Kbps

Скриншоты

MI

Format : Matroska
File size : 4.02 GiB
Duration : 2h 12mn
Overall bit rate : 4 342 Kbps
Encoded date : UTC 2011-02-18 06:49:36
Writing application : mkvmerge v3.2.0 ('Beginnings') built on Feb 12 2010 16:46:17
Writing library : libebml v0.7.9 + libmatroska v0.8.1
Video
ID : 1
Format : MPEG-4 Visual
Format profile : [email protected]
Format settings, BVOP : Yes
Format settings, QPel : No
Format settings, GMC : No warppoints
Format settings, Matrix : Default (H.263)
Codec ID : XVID
Codec ID/Hint : XviD
Duration : 2h 12mn
Bit rate : 3 872 Kbps
Width : 1 280 pixels
Height : 544 pixels
Display aspect ratio : 2.35:1
Frame rate : 23.976 fps
Color space : YUV
Chroma subsampling : 4:2:0
Bit depth : 8 bits
Scan type : Progressive
Bits/(Pixel*Frame) : 0.232
Stream size : 3.58 GiB (89%)
Writing library : XviD 1.1.0 Beta2 (UTC 2005-04-04)
Audio
ID : 2
Format : AC-3
Format/Info : Audio Coding 3
Mode extension : CM (complete main)
Codec ID : A_AC3
Duration : 2h 12mn
Bit rate mode : Constant
Bit rate : 384 Kbps
Channel(s) : 6 channels
Channel positions : Front: L C R, Side: L R, LFE
Sampling rate : 48.0 KHz
Bit depth : 16 bits
Stream size : 364 MiB (9%)

Казино Рояль / Casino Royale

Год выпуска: 2006
Слоган: «Everyone has a past. Every legend has a beginning. On November 17th, discover how James...became Bond.»
Страна: США, Германия, Великобритания, Чехия, Багамы
Жанр: шпионский боевик
Продолжительность: 02:24:04
Перевод: Профессиональный (полное дублирование)
Режиссёр: Мартин Кэмпбелл
Сценарий: Нил Пёрвис, Роберт Уэйд, Пол Хаггис
Продюсер: Барбара Брокколи, Майкл Дж. Уилсон, Чарли Вебкен
Оператор: Фил Мейхью
Композитор: Дэвид Арнольд
В ролях: Дэниэл Крэйг, Ева Грин, Мадс Миккелсен, Джуди Денч, Джеффри Райт, Джанкарло Джаннини, Катерина Мурино, Саймон Абкариан, Исаак Де Банколе, Джеспер Кристенсен, Ивана Милицевич, Тобиаш Мензес, Клаудио Сантамария, Себастьен Фукан, Малкольм Синклер, Richard Sammel, Люджер Пистор, Джозеф Миллсон, Дауд Шах, Клеменс Шик, Эммануель Авена
Описание: Самый известный шпион в мире возвращается к зрителю — и к началу своей бурной деятельности на службе Ее Величества! Первая же миссия в качестве агента 007 становится его величайшим испытанием: ему выпадает сразиться с международной террористической организацией, опутавшей своей сетью всю планету.
Используя богатый шпионский арсенал — от верного пистолета до навороченного спортивного авто — Джеймс Бонд вступает в поединок с ключевой фигурой сил зла, финансовым гением преступного мира Ле Шиффром. Но пули хороши лишь для приспешников Ле Шиффра: генеральное сражение против негодяя можно выиграть лишь силой ума — и не на поле боя, а на зеленом сукне роскошного казино «Рояль»…
Качество: HDTVRip
Формат: MKV
Видео кодек: H264
Аудио кодек: AC3
Видео: MPEG4 Video (H264) 1280x528 23.98fps Bit rate 6300 Kbps
Аудио: Dolby AC3 48000Hz 6ch Bit rate 448 Kbps

Скриншоты

MI

Format : Matroska
File size : 6.80 GiB
Duration : 2h 24mn
Overall bit rate : 6 753 Kbps
Encoded date : UTC 2007-03-17 15:45:31
Writing application : mkvmerge v2.0.2 ('You're My Flame') built on Feb 21 2007 23:40:55
Writing library : libebml v0.7.7 + libmatroska v0.8.1
Video
ID : 1
Format : AVC
Format/Info : Advanced Video Codec
Format profile : [email protected]
Format settings, CABAC : Yes
Format settings, ReFrames : 8 frames
Muxing mode : Container [email protected]
Codec ID : V_MPEG4/ISO/AVC
Duration : 2h 24mn
Bit rate : 6 300 Kbps
Width : 1 280 pixels
Height : 528 pixels
Display aspect ratio : 2.40:1
Frame rate : 23.976 fps
Color space : YUV
Chroma subsampling : 4:2:0
Bit depth : 8 bits
Scan type : Progressive
Bits/(Pixel*Frame) : 0.389
Stream size : 6.21 GiB (91%)
Writing library : x264 core 54 svn-614
Encoding settings : cabac=1 / ref=5 / deblock=1:-3:-3 / analyse=0x3:0x133 / me=umh / subme=7 / brdo=1 / mixed_ref=1 / me_range=16 / chroma_me=1 / trellis=1 / 8x8dct=1 / cqm=1 / deadzone=21,11 / chroma_qp_offset=0 / threads=3 / nr=0 / decimate=0 / mbaff=0 / bframes=3 / b_pyramid=1 / b_adapt=1 / b_bias=0 / direct=3 / wpredb=1 / bime=1 / keyint=240 / keyint_min=24 / scenecut=40(pre) / rc=2pass / bitrate=6300 / ratetol=1.0 / rceq='blurCplx^(1-qComp)' / qcomp=0.60 / qpmin=10 / qpmax=51 / qpstep=4 / cplxblur=20.0 / qblur=0.5 / ip_ratio=1.40 / pb_ratio=1.30
Language : English
Audio
ID : 2
Format : AC-3
Format/Info : Audio Coding 3
Mode extension : CM (complete main)
Codec ID : A_AC3
Duration : 2h 24mn
Bit rate mode : Constant
Bit rate : 448 Kbps
Channel(s) : 6 channels
Channel positions : Front: L C R, Side: L R, LFE
Sampling rate : 48.0 KHz
Bit depth : 16 bits
Stream size : 462 MiB (7%)
Language : Russian

Квант милосердия / Quantum of Solace

Год выпуска: 2008
Слоган: «The love of its all life was lost, and guilty should incur punishment. Bond will revenge.»
Страна: США, Великобритания
Жанр: шпионский боевик
Продолжительность: 01:46:14
Перевод: Профессиональный (полное дублирование)
Режиссёр: Марк Форстер
Сценарий: Пол Хаггис, Нил Пёрвис, Роберт Уэйд
Продюсер: Барбара Брокколи, Майкл Дж. Уилсон, Гвидо Черасуоло
Оператор: Роберто Шэфер
Композитор: Дэвид Арнольд
В ролях: Дэниэл Крэйг. Ольга Куриленко, Матье Амальрик, Джуди Денч, Джанкарло Джаннини, Джемма Артертон, Джеффри Райт, Дэвид Харбор, Еспер Кристенсен, Анатоль Таубман
Описание: После предательства Веспер, агент 007 борется с желанием превратить последнее задание в личную вендетту. В поисках истины, Бонд и М допрашивают Мистера Уайта, от которого узнают, что шантажировавшая Веспер Организация намного сложнее и опаснее, чем можно было подумать.
Судмедэксперты Mi6 устанавливают связь Веспер с анонимным банковским счётом на Гаити. Там Бонд случайно знакомится с боевой девушкой Камиллой, которая тоже жаждет мести. Через Камиллу Бонд выходит на Доминика Грина, жестокого бизнесмена и не последнего человека в Организации.
Побывав в Австрии, Италии и Южной Америке, Бонд узнает о совместном заговоре Грина и генерала Медрано с целью установления контроля над мировыми запасами нефти. Используя возможности Организации и верных ему людей в ЦРУ и британской разведке, Грин обещает генералу свергнуть существующий режим в латиноамериканской стране, в обмен на, казалось бы, пустынный участок земли.
Бонд прибегает к помощи старых друзей, чтобы установить истину. Чем ближе к установлению личности человека, толкнувшего Веспер на предательство, тем сложнее Бонду быть на шаг впереди ЦРУ, террористов и даже М, чтобы раскрыть злодейский план Грина и остановить его Организацию.
Качество: HDTVRip
Формат: MKV
Видео кодек: H264
Аудио кодек: AC3
Видео: MPEG4 Video (H264) 1920x800 23.98fps Bit rate 10.3 Mbps
Аудио: DTS 48000Hz 6ch Bit rate 755 Kbps

Скриншоты

MI

Format : Matroska
File size : 8.19 GiB
Duration : 1h 46mn
Overall bit rate : 11.0 Mbps
Encoded date : UTC 2012-03-21 23:49:05
Writing application : mkvmerge v3.2.0 ('Beginnings') built on Feb 12 2010 16:46:17
Writing library : libebml v0.7.9 + libmatroska v0.8.1
Video
ID : 1
Format : AVC
Format/Info : Advanced Video Codec
Format profile : [email protected]
Format settings, CABAC : Yes
Format settings, ReFrames : 5 frames
Muxing mode : Container [email protected]
Codec ID : V_MPEG4/ISO/AVC
Duration : 1h 46mn
Bit rate : 10.3 Mbps
Width : 1 920 pixels
Height : 800 pixels
Display aspect ratio : 2.40:1
Frame rate : 23.976 fps
Color space : YUV
Chroma subsampling : 4:2:0
Bit depth : 8 bits
Scan type : Progressive
Bits/(Pixel*Frame) : 0.279
Stream size : 7.47 GiB (91%)
Writing library : x264 core 67 r1127 8d82fec
Encoding settings : cabac=1 / ref=5 / deblock=1:0:0 / analyse=0x3:0x113 / me=umh / subme=7 / psy_rd=1.0:0.0 / mixed_ref=1 / me_range=16 / chroma_me=1 / trellis=1 / 8x8dct=1 / cqm=0 / deadzone=21,11 / chroma_qp_offset=-2 / threads=6 / nr=0 / decimate=1 / mbaff=0 / bframes=3 / b_pyramid=1 / b_adapt=1 / b_bias=0 / direct=3 / wpredb=1 / keyint=250 / keyint_min=25 / scenecut=40 / rc=2pass / bitrate=10278 / ratetol=1.0 / qcomp=0.60 / qpmin=10 / qpmax=51 / qpstep=4 / cplxblur=20.0 / qblur=0.5 / ip_ratio=1.40 / pb_ratio=1.30 / aq=1:1.00
Language : English
Audio
ID : 2
Format : DTS
Format/Info : Digital Theater Systems
Codec ID : A_DTS
Duration : 1h 46mn
Bit rate mode : Constant
Bit rate : 755 Kbps
Channel(s) : 6 channels
Channel positions : Front: L C R, Side: L R, LFE
Sampling rate : 48.0 KHz
Bit depth : 24 bits
Stream size : 573 MiB (7%)
Title : DTS
Language : Russian

+ bonus 24 фильма в DVDRip и фильм не вошедший в список Бондианы "Казино Рояль / Casino Royale"

Год выпуска: 1967
Слоган: «Casino Royale is too much for one James Bond!»
Страна: США, Великобритания
Жанр: комедия
Продолжительность: 02:11:08
Перевод: Профессиональный (полное дублирование)
Режиссёр: Вэл Гест, Кен Хьюз, Джон Хьюстон
Сценарий: Вульф Манковиц, Билли Уайлдер, Джон Ло
Продюсер: Джерри Бреслер, Чарльз К. Фельдман, Джон Дарк
Оператор: Джек Хилдъярд
Композитор: Берт Бакарак
В ролях: Питер Селлерс, Урсула Андресс, Дэвид Найвен, Орсон Уэллс, Джоанна Петтет, Далия Лави, Вуди Аллен, Дебора Керр, Уильям Холден, Джон Хьюстон, Курт Казнар, Джордж Рафт, Теренс Купер, Барбара Буше, Жаклин Биссет, Джеффри Бейлдон, Джон Уэллс, Жан-Поль Бельмондо, Питер О'Тул, Анжелика Хьюстон
Описание: Фильм начинается в загородном поместье Сэра Джеймса Бонда (Дэвид Нивен), легендарного британского шпиона, ушедшего со службы 50 лет назад, в далёком 1917м. Его посещают бывший шеф M (Джон Хьюстон), молодой шифровальщик из ЦРУ Рэнсом (Уильям Холден), надзиратель исправительного лагеря КГБ Смернов (Курт Казнар) и заместитель главы французской разведки Лё Гранд (Чарльз Бойер).
Бонд издевается над цианидовой гвозди́кой Рэнсома, арсеналом, скрытым в гротескных ботинках Смернова, снаряжёнными смертоносным ядом пуговицами Лё Гранда и стреляющими ручками M. В саду бывший шеф открывает истинную цель своего посещения (равно как и остальных): по всему миру исчезают или умирают агенты, а виновата в этом жестокая организация СМЕРШ. Все просят вернуться Джеймса Бонда на службу.
Внезапно Бонд покидает всех, чтобы сыграть Дебюсси на своём пианино. Пока он играет, гости обсуждают его отставку, последовавшую за расстрелом во Франции знаменитой экзотической танцовщицы и куртизанки Маты Хари, которая была соблазнена 007-м. Когда Джеймс возвращается и отвергает их предложение, M вручает ему письмо из Виндзорского замка в надежде изменить его решение. Бонд опять отвечает отказом, в ответ M приказывает нанести удар по особняку. Дом взлетает на воздух после попадания ракеты. Шеф британской разведки погибает от взрыва.
Бонд отправляется в Шотландию, чтобы отдать останки M его семье. Всё что осталось от него - это парик (точнее накладка), названный «наследством» Леди Фионой МакТерри (Дебора Керр), «вдовой» его шефа. На самом деле Леди Фиона — это французский агент Мими, выбранная для роли жены покойного M из-за «лучшего шотландского акцента». Во время своего визита Бонду приходиться уклоняться от ухаживаний многочисленных молодых «дочерей» МакТерри. В итоге он оказывается приглашённым на церемониальную стрельбу по куропаткам, хотя для них и не сезон. Правда, Леди Фиона объясняет, что «всякий раз, когда умирает кто-то из МакТерри, наступает сезон куропаток».
В тот же вечер Бонд наносит сокрушительное поражение банде головорезов в перекидывании каменных ядер (традиционная шотландская забава). Этим он впечатляет Леди Фиону, после чего она высказывает своё восхищение им по-французски. Другие агенты СМЕРШа начинают сомневаться в её преданности. Опасаясь, что она их раскроет, её запирают.
Наутро начинается охота на куропаток, только в качестве «куропаток» выступают летающие бомбы. К этому времени агент Мими умудряется освободиться из заточения. Она помогает Бонду пережить нападение, объяснив, что пуговица на его куртке намагничена для точного прицеливания при стрельбе по нему куропатками-бомбами. Вместе они отрывают эту пуговицу и запускают её в сторону агентов СМЕРШа. Те кидают им пуговицу обратно… После нескольких «подач» пуговица (а с ней и «куропатка») попадают в пусковую платформу, взрывая её. Сразу после этого агент Мими уходит в монастырь, попросив думать Бонда о ней, как о второй женщине в его жизни.
По дороге в Лондон Бонд умудряется пережить ещё одно покушение на него. Дорогу перед ним блокирует машина с агентом СМЕРШа, а позади преследует дистанционно управляемый фургон со взрывчаткой. В результате неполадки теряется видеосвязь с пультом управления СМЕРШа. В это время Бонд обходит блокирующую его машину и успешно въезжает в ворота, открыв и закрыв их за собой при помощи пульта. В результате автомобиль со взрывчаткой взрывается, врезавшись в другой автомобиль СМЕРШа.
Бонд теперь выдвинут на место M. Придя в его кабинет, он находит там его секретаршу мисс Манипенни (Барбара Буше), дочь настоящей мисс Манипенни. Тут же он узнаёт от Хэдли (Дерек Ниммо), что один агент до смерти упарился в сауне в Финляндии, второй — сгорел в «огненном» борделе в Мадриде, третий погиб в доме гейши.
Доп. информация

скрытый текст

* Первоначально фильм планировался как очередное продолжение бондианы, но Фелдмана не устроила сумма, которую Шон Коннери потребовал за главную роль, и было принято решение снять пародию.
* В создании сценария также принимали участие, но не были указаны в титрах: Вуди Аллен, Вэл Гест, Бен Хетч, Джозеф Хеллер, Тэрри Соутэрн, Билли Уайлдер и Питер Селлерс.
* Музыкальная тема «Bond Street» композитора Берта Бакара была впоследствие использована в одном из фильмов бондианы, «Осьминожке».
* На постерах фильма была изображена голая татуированная девушка, и Орсон Уэллс приписывал коммерческий успех фильма именно ей.[1]
* Рядом с Орсоном Уэлсом можно заметить выбивалку для ковров как отсылку к оригинальному роману Флеминга.
* Британскую разведку называют МИ-6, а не МИ-5, как в официальных фильмах бондианы.
* Доктор Ной и Джованна Гудфингс — отсылки к персонажам Флемминга доктору Но и Мэри Гуднайт.
* В 1954 году роман Яна Флеминга был экранизирован для телевидения как одна из серий телесериала «Кульминация» (англ. Climax!). Фильм Фелдмана стал первой киноэкранизацией романа. Следующая вышла на экраны только через 40 лет.
* Ян Флеминг всегда мечтал увидеть актёра Дэвида Найвена в роли Джеймса Бонда.
* Роль человека, бросившегося бежать за автомобилем после слов «Следуйте за тем автомобилем!» сыграл знаменитый гонщик Стерлинг Мосс.
* Бюджет фильма превысил бюджет двух предыдущих фильмов официальной бондианы «Шаровая молния» и «Живёшь только дважды».
* В результате судебного процесса по поводу прав на экранизацию одноименного романа Флеминга в 1999 Sony заплатила 5 миллионов долларов кинокомпании MGM и передала ей все права. В 2005 Sony купила MGM и в 2006 выпустила новую экранизацию романа.
* Урсула Андресс стала единственной актрисой дважды появившейся в роли «девушки Бонда»: в «Докторе Но» и в пародии Фельдмана.
* Сюжетная линия с Питером Селлерсом — единственное, что объединяет фильм с книгой Флеминга.
* Джордж Рафт и Жан-Поль Бельмондо указаны в начальных титрах фильма, хотя каждый из них появляется на экране всего на несколько секунд.
* Проблемы с актером Питером Селлерсом, вынудили продюсера сократить и изменить сюжетную линию его персонажа.
* Помимо Урсулы Андресс, которая играла в «Докторе Но», некоторые актёры также появились как в пародии, так и в официальной бондиане. Владек Шейбал также играл в «Из России с любовью», Берт Куок — в «Голдфингере» и «Живёшь только дважды», Джинни Роланд — в «Живёшь только дважды», Анджела Скаулар — в «На секретной службе Её Величества», Кэролайн Манро — в «Шпион, который меня любил».
* Дебора Керр, который было 46 лет во время съёмок фильма, оказалась самой «старой» из «девушек Бонда».
* Вместе со своим отцом Джоном в фильме впервые появляется на киноэкране молодая Анжелика Хьюстон в роли безымянного агента.
* «Казино „Рояль“» — единственный известный фильм, в котором Джеймс Бонд погибает.
Качество: HDTVRip
Формат: MKV
Видео кодек: H264
Аудио кодек: AC3
Видео: MPEG4 Video (H264) 720x368 (853:368) 23.98fps Bit rate 1500 Kbps
Аудио: AAC 48000Hz 6ch Bit rate 384 Kbps

Скриншоты

MI

Format : Matroska
File size : 1.87 GiB
Duration : 2h 11mn
Overall bit rate : 2 045 Kbps
Encoded date : UTC 2009-03-28 07:43:05
Writing application : mkvmerge v2.5.3 ('Boogie') built on Mar 7 2009 15:00:41
Writing library : libebml v0.7.7 + libmatroska v0.8.1
Video
ID : 1
Format : AVC
Format/Info : Advanced Video Codec
Format profile : [email protected]
Format settings, CABAC : Yes
Format settings, ReFrames : 8 frames
Muxing mode : Container [email protected]
Codec ID : V_MPEG4/ISO/AVC
Duration : 2h 11mn
Nominal bit rate : 1 500 Kbps
Width : 720 pixels
Height : 368 pixels
Display aspect ratio : 2.35:1
Original display aspect ratio : 1.957
Frame rate : 23.976 fps
Color space : YUV
Chroma subsampling : 4:2:0
Bit depth : 8 bits
Scan type : Progressive
Bits/(Pixel*Frame) : 0.236
Title : Casino Royale (Казино Рояль). 1967
Writing library : x264 core 67 r1128M 682b54d
Encoding settings : cabac=1 / ref=8 / deblock=1:-2:-1 / analyse=0x3:0x133 / me=umh / subme=9 / psy_rd=1.0:0.0 / mixed_ref=1 / me_range=32 / chroma_me=1 / trellis=2 / 8x8dct=1 / cqm=0 / deadzone=21,11 / chroma_qp_offset=-2 / threads=10 / nr=0 / decimate=0 / mbaff=0 / bframes=8 / b_pyramid=1 / b_adapt=2 / b_bias=0 / direct=3 / wpredb=1 / keyint=300 / keyint_min=25 / scenecut=45 / rc=2pass / bitrate=1500 / ratetol=85.0 / qcomp=1.00 / qpmin=8 / qpmax=51 / qpstep=4 / cplxblur=18.0 / qblur=0.5 / ip_ratio=1.50 / pb_ratio=1.30 / aq=1:1.00
Language : English
Audio #1
ID : 2
Format : AAC
Format/Info : Advanced Audio Codec
Format version : Version 4
Format profile : LC
Format settings, SBR : No
Codec ID : A_AAC
Duration : 2h 11mn
Channel(s) : 6 channels
Channel positions : Front: L C R, Side: L R, LFE
Sampling rate : 48.0 KHz
Title : Russian
Language : Russian
Audio #2
ID : 3
Format : AAC
Format/Info : Advanced Audio Codec
Format version : Version 4
Format profile : LC
Format settings, SBR : No
Codec ID : A_AAC
Duration : 2h 11mn
Channel(s) : 6 channels
Channel positions : Front: L C R, Side: L R, LFE
Sampling rate : 48.0 KHz
Title : English
Language : English
Text
ID : 4
Format : UTF-8
Codec ID : S_TEXT/UTF8
Codec ID/Info : UTF-8 Plain Text
Title : English
Language : English


Последний раз редактировалось: alekshaman (2013-01-07 14:09), всего редактировалось 1 раз

Создавать темы 06-Янв-2013 13:33

[Профиль]  [ЛС] 

TARANTINO

Стаж: 5 лет

Сообщений: 42

Симпатии: 1

угусь,ну и,размерчик )

Создавать темы 06-Янв-2013 13:37

[Профиль]  [ЛС] 

KrogAN

Стаж: 5 лет

Сообщений: 43

Симпатии: 1

золото

Создавать темы 06-Янв-2013 13:46

[Профиль]  [ЛС] 

Esh

Стаж: 6 лет 11 месяцев

Сообщений: 21

alekshaman, РЕСПЕКТ !!!

Создавать темы 06-Янв-2013 13:54

[Профиль]  [ЛС] 

самурай

Стаж: 6 лет 6 месяцев

Сообщений: 6

Спасибо большое, давно хотел скачать все фильмы о Боне

Создавать темы 06-Янв-2013 14:21

[Профиль]  [ЛС] 

bokal_solutions

Стаж: 6 лет 9 месяцев

Сообщений: 69

Симпатии: 5

По любому золото
alekshaman, красавчик

Создавать темы 06-Янв-2013 15:48

[Профиль]  [ЛС] 

vladimir74

Стаж: 5 лет 2 месяца

Сообщений: 2

alekshaman ® Спасибо. Вот этоколлекция.
Жду раздачи.

Создавать темы 06-Янв-2013 21:03

[Профиль]  [ЛС] 

Mr-Rassl

Стаж: 4 года 11 месяцев

Сообщений: 2

ты подели их что-ли на несколько частей а то места нету куда качать е маё а так класс что все сохранил!!!

Создавать темы 06-Янв-2013 22:47

[Профиль]  [ЛС] 

alekshaman ®

Стаж: 7 лет

Сообщений: 6

Симпатии: 4

всё раздача пошла, наконец то прохешировался

Создавать темы 06-Янв-2013 23:28

[Профиль]  [ЛС] 

JALOLADDIN

Стаж: 5 лет 9 месяцев

Сообщений: 17

автору спасибо большое
теперь скорости с тебя

Создавать темы 07-Янв-2013 21:34

[Профиль]  [ЛС] 

Artt

Стаж: 5 лет 9 месяцев

Сообщений: 8

Симпатии: 1

Кто скачал Шаровую молнию - встаньте на раздачу на "нормальной" скорости, пожалуйста.

Создавать темы 15-Янв-2013 16:03

[Профиль]  [ЛС] 

DMiTRY

Стаж: 6 лет 5 месяцев

Сообщений: 649

Симпатии: 28

Не хочу вас огорчать пользователи,но качать такую коллекцию вы будете ну месяца 2-3.

Создавать темы 15-Янв-2013 18:28

[Профиль]  [ЛС] 

Flynn

Стаж: 4 года 11 месяцев

Сообщений: 3

Симпатии: 1

Я один не вижу сида уже около 2х дней?

Скриншоты

Создавать темы 20-Янв-2013 00:29

[Профиль]  [ЛС] 

yghy

Стаж: 6 лет 11 месяцев

Сообщений: 4

Спасибо большое

Создавать темы 20-Янв-2013 22:42

[Профиль]  [ЛС] 

alex_a_1

Стаж: 5 лет 9 месяцев

Сообщений: 2

alekshaman, Если есть возможность закачать на винт (не даром естественно ) плиз в личку , Сэр ;) [email protected]

Создавать темы 24-Янв-2013 13:10

[Профиль]  [ЛС] 
Показать сообщения:    
Ответить на тему

Текущее время: 23-Окт 03:58

Часовой пояс: UTC + 5



Вы не можете начинать темы
Вы не можете отвечать на сообщения
Вы не можете редактировать свои сообщения
Вы не можете удалять свои сообщения
Вы не можете голосовать в опросах
Вы не можете прикреплять файлы к сообщениям
Вы не можете скачивать файлы