13-й воин / The 13th Warrior (Джон МакТирнан) [1999 г., боевик, приключения, фэнтези, DVDRip]

Ответить на тему
 

able_1989 ®

Стаж: 5 лет 1 месяц

Сообщений: 34

Симпатии: 2

13-й воин / The 13th Warrior
Год выпуска: 1999
Страна: США
Жанр: боевик, приключения, фэнтези
Продолжительность: 01:38:15
Перевод: Профессиональный (полное дублирование)
Режиссер: Джон МакТирнан
В ролях: Антонио Бандерас, Владимир Кулич, Дэннис Сторхо, Даниэль Соусерн, Нил Маффин, Джон ДеСантис, Клив Расселл, Миша Хауссеоман, Оливер Свеиналл, Асбжорн 'Bear' Риис
Описание: Ахмед ибн Фахдлан, утонченный аристократ и поэт, в наказание за любовь отправился посланником цивилизованного Востока на варварский Север, к диким и необузданным викингам. Эти храбрые воины готовились к походу против таинственного племени Пожирателей Трупов, опустошающего деревни и оставляющего после себя груду человеческих скелетов.
По древнему поверью, только тринадцать воинов могут одолеть звероподобного врага. Но, чтобы пророчество сбылось, один из смельчаков должен быть чужестранцем… Волей счастливого случая или зловещего рока, бывший поэт, а ныне тринадцатый воин берет в руки оружие и отправляется туда, где умолкают даже неустрашимые викинги, чтобы случайно не назвать свой страх поимени.
Качество: DVDRip
Формат: AVI
Видео кодек: XviD
Аудио кодек: AC3
Видео: 720х304, (2.35:1), 25.000 fps, 1 613 Kbps
Аудио#1: Audio Coding 3, 384 Kbps, 48.0 KHz, 6 channels русский (полное дублирование)
Аудио#2: Audio Coding 3, 384 Kbps, 48.0 KHz, 6 channels русский (проф. одноголосный)
Аудио#3: Audio Coding 3, 384 Kbps, 48.0 KHz, 6 channels русский (любительский одноголосный)
Аудио#4: Audio Coding 3, 384 Kbps, 48.0 KHz, 6 channels английский

Скриншоты

MediaInfo

Video
ID : 0
Format : MPEG-4 Visual
Format profile : Advanced [email protected]
Format settings, BVOP : Yes
Format settings, QPel : No
Format settings, GMC : No warppoints
Format settings, Matrix : Default (MPEG)
Codec ID : XVID
Codec ID/Hint : XviD
Duration : 1h 38mn
Bit rate : 1 613 Kbps
Width : 720 pixels
Height : 304 pixels
Display aspect ratio : 2.35:1
Frame rate : 25.000 fps
Color space : YUV
Chroma subsampling : 4:2:0
Bit depth : 8 bits
Scan type : Progressive
Bits/(Pixel*Frame) : 0.295
Stream size : 1.11 GiB (51%)
Writing library : XviD 1.2.1 (UTC 2008-12-04)
Audio #1
ID : 1
Format : AC-3
Format/Info : Audio Coding 3
Mode extension : CM (complete main)
Codec ID : 2000
Duration : 1h 38mn
Bit rate mode : Constant
Bit rate : 384 Kbps
Channel(s) : 6 channels
Channel positions : Front: L C R, Side: L R, LFE
Sampling rate : 48.0 KHz
Stream size : 270 MiB (12%)
Alignment : Split accross interleaves
Interleave, duration : 40 ms (1.00 video frame)
Interleave, preload duration : 500 ms
Audio #2
ID : 2
Format : AC-3
Format/Info : Audio Coding 3
Mode extension : CM (complete main)
Codec ID : 2000
Duration : 1h 38mn
Bit rate mode : Constant
Bit rate : 384 Kbps
Channel(s) : 6 channels
Channel positions : Front: L C R, Side: L R, LFE
Sampling rate : 48.0 KHz
Stream size : 270 MiB (12%)
Alignment : Split accross interleaves
Interleave, duration : 40 ms (1.00 video frame)
Interleave, preload duration : 500 ms
Audio #3
ID : 3
Format : AC-3
Format/Info : Audio Coding 3
Mode extension : CM (complete main)
Codec ID : 2000
Duration : 1h 38mn
Bit rate mode : Constant
Bit rate : 384 Kbps
Channel(s) : 6 channels
Channel positions : Front: L C R, Side: L R, LFE
Sampling rate : 48.0 KHz
Stream size : 270 MiB (12%)
Alignment : Split accross interleaves
Interleave, duration : 40 ms (1.00 video frame)
Interleave, preload duration : 500 ms
Audio #4
ID : 4
Format : AC-3
Format/Info : Audio Coding 3
Mode extension : CM (complete main)
Codec ID : 2000
Duration : 1h 38mn
Bit rate mode : Constant
Bit rate : 384 Kbps
Channel(s) : 6 channels
Channel positions : Front: L C R, Side: L R, LFE
Sampling rate : 48.0 KHz
Stream size : 270 MiB (12%)
Alignment : Split accross interleaves
Interleave, duration : 40 ms (1.00 video frame)
Interleave, preload duration : 500 ms


Последний раз редактировалось: able_1989 (2013-02-16 22:00), всего редактировалось 1 раз

Создавать темы 06-Янв-2013 19:04

[Профиль]  [ЛС] 

able_1989 ®

Стаж: 5 лет 1 месяц

Сообщений: 34

Симпатии: 2

Раздача завтра с 10 утра

Создавать темы 06-Янв-2013 20:00

[Профиль]  [ЛС] 

jojo1

Стаж: 5 лет 2 месяца

Сообщений: 174

Симпатии: 50

Дааа фильмец отличный

Создавать темы 06-Янв-2013 20:02

[Профиль]  [ЛС] 

able_1989 ®

Стаж: 5 лет 1 месяц

Сообщений: 34

Симпатии: 2

jojo1, +1 , я его раз 50 смотрел наверно))

Создавать темы 06-Янв-2013 20:05

[Профиль]  [ЛС] 

able_1989 ®

Стаж: 5 лет 1 месяц

Сообщений: 34

Симпатии: 2

ребят сорри, раздача завтра с утра

Создавать темы 08-Янв-2013 13:17

[Профиль]  [ЛС] 

erha

Стаж: 5 лет 2 месяца

Сообщений: 74

клёвый фильм, принимайте в личеры!

Создавать темы 29-Янв-2013 19:49

[Профиль]  [ЛС] 

Rom

Стаж: 5 лет 1 месяц

Сообщений: 13

Прибавьте скорости плз!!!

Создавать темы 22-Окт-2013 20:31

[Профиль]  [ЛС] 

Alisher_tash

Стаж: 4 года 1 месяц

Сообщений: 4

Плс дайте Скорость

Создавать темы 20-Дек-2013 13:35

[Профиль]  [ЛС] 

aliggarx

Стаж: 5 лет 9 месяцев

Сообщений: 6

Дайте скачать.

Создавать темы 12-Ноя-2014 10:25

[Профиль]  [ЛС] 
Показать сообщения:    
Ответить на тему

Текущее время: 13-Дек 23:36

Часовой пояс: UTC + 5



Вы не можете начинать темы
Вы не можете отвечать на сообщения
Вы не можете редактировать свои сообщения
Вы не можете удалять свои сообщения
Вы не можете голосовать в опросах
Вы не можете прикреплять файлы к сообщениям
Вы не можете скачивать файлы