Бродяга Кэнсин / Rurôni Kenshin: Meiji kenkaku roman tan (Кейдзи Отомо) [2012 г., Историческая драма, боевик, HDTVRip-AVC]

Ответить на тему
 

Rambotnik ®

Стаж: 6 лет 5 месяцев

Сообщений: 1274

Симпатии: 81

Бродяга Кэнсин / Rurôni Kenshin: Meiji kenkaku roman tan
Год выпуска: 2012
Страна: Япония
Жанр: Историческая драма, боевик
Продолжительность: 02:14:26
Перевод: Любительский (двухголосый) - Ворон и Трина Дубовицкая
Режиссер: Кейдзи Отомо
В ролях:
Jung Takeru Sato - Kenshin Himura Кэнсин Химура
Emi Takei - Kaoru Kamiya Каору Камия
Taketo Tanaka - Yahiko Myojin Яхико Мёдзин
Munetaka Aoki - Sanosuke Sagara Саноскэ Сагара
Yu Aoi - Megumi Takani Мэгуми Такани
Yosuke Eguchi - Hajime Saito Хадзимэ Сайто
Koji Kikkawa - Udo Jin-e Удо Дзинъэ
Teruyuki Kagawa - Kanryu Takeda Такэда Канрю
Gou Ayano - Gein Гэйн
Genki Sudo - Banjin Inui Бандзин Инуи
Eiji Okuda - Aritomo Yamagata генерал Ямагата Аритомо
Описание:
Нищий бродяга идёт по городу... За поясом меч, хотя и запрещено. Никто не знает, что этот бродяга - легендарный хитокири.
По этому же городу идёт девушка... Обычная такая, в юката. И известна она как мастер школы Камия Кассин.
Реставрация Мэйдзи закончилась, оставя позади себя разрушения. Новое правительство усердно уничтожало старых врагов, попутно проводя реформы. В Японии расцветала новая жизнь - без мечей, без смертей, без войны. И только одинокий бродяга ходит из города в город, пытаясь искупить грехи прошлых лет.
Короткая остановка в Эдо - и вот бродягу уже пригласили остановиться в школе Камия. Но тихая и мирная жизнь не продлится долго... Тени из прошлого Баттосая кружат вокруг, думая, что малую кровь можно искупить только большой...
Доп. информация:
- Фильм основан на одноименной манге авторства Нобухиро Вацуки.
- Сам Сато Такэру, усердно тренируясь боям на мечах, говорит: "Кэнсин сам по себе очень известный персонаж, однако я думаю, всё равно нужно создать что-то увлеательно. Я бы хотел создать этот образ вместе со стаффом, выделяя детали роли. Я постараюсь. Смотрите нас".
- Вацуки-сэнсей комментирует выбор Сато как: "Когда проект только запустили, мы с женой поговорили о том, кто подходит на главную роль. И Сато-сан пришёл на ум одним из первых. Так что, когда его утвердили, я был удивлён, но адски счастлив. Жду не дождусь окончания работ".
- Данный фильм охватывает около 25-30 серий одноимённого анимэ.
- Хитокири - 人斬り - «тот, кто режет людей», наёмный убийца.
- Синсэнгуми - японский военно-полицейский отряд времён позднего сёгуната Токугава (бакумацу), сформированный сёгунским правительством в 1863 году и продолжавший действовать до 1869 года.
- Сатё - союз Сацума и Тёсю.
Сацума - княжество, существовавшее в Японии в период сёгуната Токугава. Наряду с княжеством Тёсю играло ведущую роль в реставрации Мэйдзи.
Тёсю - феодальное княжество в Японии периода Эдо (1603—1867), занимавшее территорию современной префектуры Ямагути и сыгравшее значительную роль в падении сёгуната Токугава.
- Реставрация (Мэйдзи) - череда событий, приведшая к значительным изменениям в японской политической и социальной структуре. Четырёхлетний период с 1866 по 1869 гг., включающий в себя последние годы периода Эдо и начало периода Мэйдзи.
- Додзё - место, где проходят тренировки, соревнования и аттестации в японских боевых искусствах.
- Кэндзюцу - японское искусство владения мечом.
- Баттодзюцу - японская техника обнажения меча.
- Война Босин - война (1868-1869), длившаяся около года на севере Хонсю и Хоккайдо, между войсками сёгуната и императора. Битва при Тоба-Фусими - первая битва этой войны.
- Смута годов Онин (1467-1477) - гражданская война, проходившая в Киото. Эта война дала начало так называемой эпохе Воюющих провинций.
Качество: HDTVRip-AVC
Формат: MKV
Видео кодек: H.26x
Аудио кодек: AC3
Видео: 720x304 (2,35:1), 23.976 fps, x264 ~1421 kbps avg, 0.271 bit/pixel
Аудио: 48 kHz, AC3 Dolby Digital, 3/2 (L,C,R,l,r) + LFE ch, ~448 kbps (обе дорожки)

MediaInfo

Формат : Matroska
Версия формата : Version 4 / Version 2
Размер файла : 2,18 Гбайт
Продолжительность : 2 ч. 14 м.
Общий поток : 2319 Кбит/сек
Дата кодирования : UTC 2010-02-22 21:41:31
Программа кодирования : mkvmerge v5.9.0 ('On The Loose') built on Dec 9 2012 15:37:01
Библиотека кодирования : libebml v1.3.0 + libmatroska v1.4.0
Видео
Идентификатор : 1
Формат : AVC
Формат/Информация : Advanced Video Codec
Профиль формата : [email protected]
Параметр CABAC формата : Да
Параметр ReFrames формата : 4 кадра
Идентификатор кодека : V_MPEG4/ISO/AVC
Продолжительность : 2 ч. 14 м.
Битрейт : 1421 Кбит/сек
Ширина : 720 пикселей
Высота : 304 пикселя
Соотношение сторон : 2,35:1
Режим частоты кадров : Постоянный
Частота кадров : 23,976 кадра/сек
Цветовое пространство : YUV
Субдискретизация насыщенности : 4:2:0
Битовая глубина : 8 бит
Тип развёртки : Прогрессивная
Бит/(Пиксели*Кадры) : 1421
Размер потока : 1,29 Гбайт (59%)
Библиотека кодирования : x264 core 129 r2230 1cffe9f
Настройки программы : cabac=1 / ref=3 / deblock=1:-2:-1 / analyse=0x3:0x113 / me=hex / subme=7 / psy=1 / psy_rd=1.00:0.10 / mixed_ref=1 / me_range=16 / chroma_me=1 / trellis=1 / 8x8dct=1 / cqm=0 / deadzone=21,11 / fast_pskip=1 / chroma_qp_offset=-3 / threads=3 / lookahead_threads=1 / sliced_threads=0 / nr=0 / decimate=0 / interlaced=0 / bluray_compat=0 / constrained_intra=0 / bframes=3 / b_pyramid=2 / b_adapt=1 / b_bias=0 / direct=1 / weightb=1 / open_gop=0 / weightp=2 / keyint=240 / keyint_min=23 / scenecut=40 / intra_refresh=0 / rc=2pass / mbtree=0 / bitrate=1421 / ratetol=1.0 / qcomp=0.65 / qpmin=10 / qpmax=51 / qpstep=4 / cplxblur=20.0 / qblur=0.5 / ip_ratio=1.40 / pb_ratio=1.30 / aq=1:1.00
Default : Да
Forced : Нет
Коэффициенты матрицы : BT.709
Аудио #1
Идентификатор : 2
Формат : AC-3
Формат/Информация : Audio Coding 3
Расширение режима : CM (complete main)
Параметр Endianness формата : Big
Идентификатор кодека : A_AC3
Продолжительность : 2 ч. 14 м.
Вид битрейта : Постоянный
Битрейт : 448 Кбит/сек
Каналы : 6 каналов
Расположение каналов : Front: L C R, Side: L R, LFE
Частота : 48,0 КГц
Битовая глубина : 16 бит
Метод сжатия : С потерями
Размер потока : 431 Мбайт (19%)
Заголовок : DVO Ворон и Трина Дубовицкая
Язык : Russian
Default : Да
Forced : Нет
Аудио #2
Идентификатор : 3
Формат : AC-3
Формат/Информация : Audio Coding 3
Расширение режима : CM (complete main)
Параметр Endianness формата : Big
Идентификатор кодека : A_AC3
Продолжительность : 2 ч. 14 м.
Вид битрейта : Постоянный
Битрейт : 448 Кбит/сек
Каналы : 6 каналов
Расположение каналов : Front: L C R, Side: L R, LFE
Частота : 48,0 КГц
Битовая глубина : 16 бит
Метод сжатия : С потерями
Размер потока : 431 Мбайт (19%)
Заголовок : Original
Язык : Japanese
Default : Нет
Forced : Нет
Текст
Идентификатор : 4
Формат : UTF-8
Идентификатор кодека : S_TEXT/UTF8
Идентификатор кодека/Информация : UTF-8 Plain Text
Заголовок : Фансаб-группа "АЛЬЯНС"
Язык : Russian
Default : Да
Forced : Нет

Скриншоты



Создавать темы 07-Янв-2013 09:55

[Профиль]  [ЛС] 

archer

Стаж: 5 лет 9 месяцев

Сообщений: 176

)) это что экранизация Самурая Икс ?

Создавать темы 07-Янв-2013 10:27

[Профиль]  [ЛС] 

Rambotnik ®

Стаж: 6 лет 5 месяцев

Сообщений: 1274

Симпатии: 81

Да

Создавать темы 07-Янв-2013 11:09

[Профиль]  [ЛС] 

eclat

Стаж: 4 года 11 месяцев

Сообщений: 11

скорости пабольше

Создавать темы 07-Янв-2013 11:20

[Профиль]  [ЛС] 

kvint

Стаж: 7 лет 8 месяцев

Сообщений: 84

Симпатии: 5

не плохая экранизация

Создавать темы 09-Янв-2013 19:18

[Профиль]  [ЛС] 

CrazY_Me

Стаж: 6 лет 4 месяца

Сообщений: 10

Симпатии: 1

ну как филм? стоит качат?

Создавать темы 09-Янв-2013 19:55

[Профиль]  [ЛС] 

Rambotnik ®

Стаж: 6 лет 5 месяцев

Сообщений: 1274

Симпатии: 81

Если Вы в состоянии отличить шедевр от яркого фантика - обязательно.

Создавать темы 09-Янв-2013 21:15

[Профиль]  [ЛС] 

Sinema_uz

Стаж: 6 лет 9 месяцев

Сообщений: 303

Симпатии: 4

спасибочки искал этот фильм

Создавать темы 22-Янв-2013 20:46

[Профиль]  [ЛС] 

sevenst77

Стаж: 5 лет 9 месяцев

Сообщений: 40

Спасибо! Великие мастера 2013 / The Grandmasters Может есть у кого,поделитесь

Создавать темы 03-Фев-2013 00:09

[Профиль]  [ЛС] 

ForJ

Стаж: 4 года 4 месяца

Сообщений: 56

Люди, помогите скачать

Создавать темы 24-Янв-2014 10:37

[Профиль]  [ЛС] 

l-ART-l

Стаж: 5 лет 8 месяцев

Сообщений: 13

плиз помогите скачать. я уже два дня жду.

Создавать темы 24-Май-2014 22:06

[Профиль]  [ЛС] 

Бездущный

Стаж: 3 года 10 месяцев

Сообщений: 73

Симпатии: 10

дайте раздачу! очень хочется посмотреть фильм.

Создавать темы 26-Июн-2014 12:55

[Профиль]  [ЛС] 
Показать сообщения:    
Ответить на тему

Текущее время: 23-Окт 14:56

Часовой пояс: UTC + 5



Вы не можете начинать темы
Вы не можете отвечать на сообщения
Вы не можете редактировать свои сообщения
Вы не можете удалять свои сообщения
Вы не можете голосовать в опросах
Вы не можете прикреплять файлы к сообщениям
Вы не можете скачивать файлы