[fxphd] C4D202 - Cinema4D and After Effects in Production [2009, ENG]

Ответить на тему
 

rain ®

Стаж: 7 лет 6 месяцев

Сообщений: 8

C4D202 - Cinema4D and After Effects in Production
Год выпуска: 2009
Производитель: fxphd
Сайт производителя: http://www.fxphd.com/
Автор: Tim Clapham
Продолжительность: 6:54:43
Тип раздаваемого материала: Видеоурок
Язык: Английский
Описание: The main focus of the course will be using Cinema4D to create motion graphics. Through all the classes, general workflow and project management will be discussed, including organising the object manager, use of layers, XRefs, and managing layouts. We will look at practical uses for many of the available modules, including MoGraph, Thinking Particles, Hair, Cloth and Sketch and Toon. This will also involve use of Xpresso, materials, some post effects and lighting and rendering techniques. Throughout the term we will work on both tips and techniques, as well as project based motion graphics classes. Specifically taking a concept and developing the project, outputting various render passes and compositing these in After Effects.

Содержание

В курсе содержиться 10 классов в которых вам расскажут о том как подогнать программу под программу, то есть экспорт импорт из одной в другую, совместная работа и мелочи работы.
Файлы примеров: присутствуют
Формат видео: MOV
Видео: MPEG4 Video (H264) 1152x720 12fps 213kbps
Аудио: AAC 44100Hz mono 64kbps

Скриншоты





Mediainfo

General
Complete name : G:\Films\My Torrents\FXPHD C4D202 - Cinema4D and After Effects in Production\FXPHD_C4D202_CGP\Classes\c4d202-class01.mov
Format : MPEG-4
Format profile : QuickTime
Codec ID : qt
File size : 71.8 MiB
Duration : 43mn 8s
Overall bit rate : 233 Kbps
Encoded date : UTC 2008-07-16 01:46:37
Tagged date : UTC 2008-07-16 01:46:48
Writing library : Apple QuickTime
Video
ID : 1
Format : AVC
Format/Info : Advanced Video Codec
Format profile : [email protected]
Format settings, CABAC : No
Format settings, ReFrames : 2 frames
Codec ID : avc1
Codec ID/Info : Advanced Video Coding
Duration : 43mn 8s
Bit rate : 165 Kbps
Width : 1 152 pixels
Height : 720 pixels
Display aspect ratio : 1.600
Frame rate mode : Constant
Frame rate : 12.000 fps
Color space : YUV
Chroma subsampling : 4:2:0
Bit depth : 8 bits
Scan type : Progressive
Bits/(Pixel*Frame) : 0.017
Stream size : 51.0 MiB (71%)
Language : English
Encoded date : UTC 2008-07-16 01:46:34
Tagged date : UTC 2008-07-16 01:46:48
Color primaries : BT.709-5, BT.1361, IEC 61966-2-4, SMPTE RP177
Transfer characteristics : BT.709-5, BT.1361
Matrix coefficients : BT.709-5, BT.1361, IEC 61966-2-4 709, SMPTE RP177
Audio
ID : 2
Format : AAC
Format/Info : Advanced Audio Codec
Format profile : LC
Codec ID : 40
Duration : 43mn 8s
Source duration : 43mn 8s
Bit rate mode : Constant
Bit rate : 64.0 Kbps
Channel(s) : 1 channel
Channel positions : Front: C
Sampling rate : 44.1 KHz
Compression mode : Lossy
Stream size : 19.8 MiB (28%)
Source stream size : 19.8 MiB (28%)
Language : English
Encoded date : UTC 2008-07-16 01:46:34
Tagged date : UTC 2008-07-16 01:46:48
General
Complete name : G:\Films\My Torrents\FXPHD C4D202 - Cinema4D and After Effects in Production\FXPHD_C4D202_CGP\Classes\c4d202-class02.mov
Format : MPEG-4
Format profile : QuickTime
Codec ID : qt
File size : 53.0 MiB
Duration : 27mn 35s
Overall bit rate : 269 Kbps
Encoded date : UTC 2008-07-22 02:49:35
Tagged date : UTC 2008-07-22 02:49:42
Writing library : Apple QuickTime
Video
ID : 1
Format : AVC
Format/Info : Advanced Video Codec
Format profile : [email protected]
Format settings, CABAC : No
Format settings, ReFrames : 2 frames
Codec ID : avc1
Codec ID/Info : Advanced Video Coding
Duration : 27mn 35s
Bit rate : 202 Kbps
Width : 1 152 pixels
Height : 720 pixels
Display aspect ratio : 1.600
Frame rate mode : Constant
Frame rate : 12.000 fps
Color space : YUV
Chroma subsampling : 4:2:0
Bit depth : 8 bits
Scan type : Progressive
Bits/(Pixel*Frame) : 0.020
Stream size : 39.8 MiB (75%)
Language : English
Encoded date : UTC 2008-07-22 02:49:33
Tagged date : UTC 2008-07-22 02:49:42
Color primaries : BT.709-5, BT.1361, IEC 61966-2-4, SMPTE RP177
Transfer characteristics : BT.709-5, BT.1361
Matrix coefficients : BT.709-5, BT.1361, IEC 61966-2-4 709, SMPTE RP177
Audio
ID : 2
Format : AAC
Format/Info : Advanced Audio Codec
Format profile : LC
Codec ID : 40
Duration : 27mn 30s
Source duration : 27mn 30s
Bit rate mode : Constant
Bit rate : 64.0 Kbps
Channel(s) : 1 channel
Channel positions : Front: C
Sampling rate : 44.1 KHz
Compression mode : Lossy
Stream size : 12.6 MiB (24%)
Source stream size : 12.6 MiB (24%)
Language : English
Encoded date : UTC 2008-07-22 02:49:33
Tagged date : UTC 2008-07-22 02:49:42
General
Complete name : G:\Films\My Torrents\FXPHD C4D202 - Cinema4D and After Effects in Production\FXPHD_C4D202_CGP\Classes\c4d202-class03.mov
Format : MPEG-4
Format profile : QuickTime
Codec ID : qt
File size : 89.9 MiB
Duration : 52mn 21s
Overall bit rate : 240 Kbps
Encoded date : UTC 2008-07-29 21:29:18
Tagged date : UTC 2008-07-29 21:29:32
Writing library : Apple QuickTime
Video
ID : 1
Format : AVC
Format/Info : Advanced Video Codec
Format profile : [email protected]
Format settings, CABAC : No
Format settings, ReFrames : 2 frames
Codec ID : avc1
Codec ID/Info : Advanced Video Coding
Duration : 52mn 21s
Bit rate : 173 Kbps
Width : 1 152 pixels
Height : 720 pixels
Display aspect ratio : 1.600
Frame rate mode : Constant
Frame rate : 12.000 fps
Color space : YUV
Chroma subsampling : 4:2:0
Bit depth : 8 bits
Scan type : Progressive
Bits/(Pixel*Frame) : 0.017
Stream size : 64.7 MiB (72%)
Language : English
Encoded date : UTC 2008-07-29 21:29:14
Tagged date : UTC 2008-07-29 21:29:32
Color primaries : BT.709-5, BT.1361, IEC 61966-2-4, SMPTE RP177
Transfer characteristics : BT.709-5, BT.1361
Matrix coefficients : BT.709-5, BT.1361, IEC 61966-2-4 709, SMPTE RP177
Audio
ID : 2
Format : AAC
Format/Info : Advanced Audio Codec
Format profile : LC
Codec ID : 40
Duration : 52mn 16s
Source duration : 52mn 16s
Bit rate mode : Constant
Bit rate : 64.0 Kbps
Channel(s) : 1 channel
Channel positions : Front: C
Sampling rate : 44.1 KHz
Compression mode : Lossy
Stream size : 23.9 MiB (27%)
Source stream size : 23.9 MiB (27%)
Language : English
Encoded date : UTC 2008-07-29 21:29:14
Tagged date : UTC 2008-07-29 21:29:32
General
Complete name : G:\Films\My Torrents\FXPHD C4D202 - Cinema4D and After Effects in Production\FXPHD_C4D202_CGP\Classes\c4d202-class04.mov
Format : MPEG-4
Format profile : QuickTime
Codec ID : qt
File size : 147 MiB
Duration : 56mn 0s
Overall bit rate : 367 Kbps
Encoded date : UTC 2008-08-06 22:53:03
Tagged date : UTC 2008-08-06 22:53:52
Writing library : Apple QuickTime
Video
ID : 1
Format : AVC
Format/Info : Advanced Video Codec
Format profile : [email protected]
Format settings, CABAC : No
Format settings, ReFrames : 2 frames
Codec ID : avc1
Codec ID/Info : Advanced Video Coding
Duration : 56mn 0s
Bit rate : 300 Kbps
Width : 1 152 pixels
Height : 720 pixels
Display aspect ratio : 1.600
Frame rate mode : Constant
Frame rate : 12.000 fps
Color space : YUV
Chroma subsampling : 4:2:0
Bit depth : 8 bits
Scan type : Progressive
Bits/(Pixel*Frame) : 0.030
Stream size : 120 MiB (82%)
Language : English
Encoded date : UTC 2008-08-06 22:52:57
Tagged date : UTC 2008-08-06 22:53:52
Color primaries : BT.709-5, BT.1361, IEC 61966-2-4, SMPTE RP177
Transfer characteristics : BT.709-5, BT.1361
Matrix coefficients : BT.709-5, BT.1361, IEC 61966-2-4 709, SMPTE RP177
Audio
ID : 2
Format : AAC
Format/Info : Advanced Audio Codec
Format profile : LC
Codec ID : 40
Duration : 55mn 55s
Source duration : 55mn 55s
Bit rate mode : Constant
Bit rate : 64.0 Kbps
Channel(s) : 1 channel
Channel positions : Front: C
Sampling rate : 44.1 KHz
Compression mode : Lossy
Stream size : 25.6 MiB (17%)
Source stream size : 25.6 MiB (17%)
Language : English
Encoded date : UTC 2008-08-06 22:52:58
Tagged date : UTC 2008-08-06 22:53:52
General
Complete name : G:\Films\My Torrents\FXPHD C4D202 - Cinema4D and After Effects in Production\FXPHD_C4D202_CGP\Classes\c4d202-class05.mov
Format : MPEG-4
Format profile : QuickTime
Codec ID : qt
File size : 69.2 MiB
Duration : 34mn 29s
Overall bit rate : 281 Kbps
Encoded date : UTC 2008-08-12 16:53:19
Tagged date : UTC 2008-08-12 16:53:32
Writing library : Apple QuickTime
Video
ID : 1
Format : AVC
Format/Info : Advanced Video Codec
Format profile : [email protected]
Format settings, CABAC : No
Format settings, ReFrames : 2 frames
Codec ID : avc1
Codec ID/Info : Advanced Video Coding
Duration : 34mn 29s
Bit rate : 213 Kbps
Width : 1 152 pixels
Height : 720 pixels
Display aspect ratio : 1.600
Frame rate mode : Constant
Frame rate : 12.000 fps
Color space : YUV
Chroma subsampling : 4:2:0
Bit depth : 8 bits
Scan type : Progressive
Bits/(Pixel*Frame) : 0.021
Stream size : 52.6 MiB (76%)
Language : English
Encoded date : UTC 2008-08-12 16:53:17
Tagged date : UTC 2008-08-12 16:53:32
Color primaries : BT.709-5, BT.1361, IEC 61966-2-4, SMPTE RP177
Transfer characteristics : BT.709-5, BT.1361
Matrix coefficients : BT.709-5, BT.1361, IEC 61966-2-4 709, SMPTE RP177
Audio
ID : 2
Format : AAC
Format/Info : Advanced Audio Codec
Format profile : LC
Codec ID : 40
Duration : 34mn 24s
Source duration : 34mn 24s
Bit rate mode : Constant
Bit rate : 64.0 Kbps
Channel(s) : 1 channel
Channel positions : Front: C
Sampling rate : 44.1 KHz
Compression mode : Lossy
Stream size : 15.8 MiB (23%)
Source stream size : 15.8 MiB (23%)
Language : English
Encoded date : UTC 2008-08-12 16:53:17
Tagged date : UTC 2008-08-12 16:53:32
General
Complete name : G:\Films\My Torrents\FXPHD C4D202 - Cinema4D and After Effects in Production\FXPHD_C4D202_CGP\Classes\c4d202-class06.mov
Format : MPEG-4
Format profile : QuickTime
Codec ID : qt
File size : 63.4 MiB
Duration : 34mn 3s
Overall bit rate : 260 Kbps
Encoded date : UTC 2008-08-28 00:30:04
Tagged date : UTC 2008-08-28 00:30:23
Writing library : Apple QuickTime
Video
ID : 1
Format : AVC
Format/Info : Advanced Video Codec
Format profile : [email protected]
Format settings, CABAC : No
Format settings, ReFrames : 2 frames
Codec ID : avc1
Codec ID/Info : Advanced Video Coding
Duration : 34mn 3s
Bit rate : 193 Kbps
Width : 1 152 pixels
Height : 720 pixels
Display aspect ratio : 1.600
Frame rate mode : Constant
Frame rate : 12.000 fps
Color space : YUV
Chroma subsampling : 4:2:0
Bit depth : 8 bits
Scan type : Progressive
Bits/(Pixel*Frame) : 0.019
Stream size : 47.0 MiB (74%)
Language : English
Encoded date : UTC 2008-08-28 00:30:02
Tagged date : UTC 2008-08-28 00:30:23
Color primaries : BT.709-5, BT.1361, IEC 61966-2-4, SMPTE RP177
Transfer characteristics : BT.709-5, BT.1361
Matrix coefficients : BT.709-5, BT.1361, IEC 61966-2-4 709, SMPTE RP177
Audio
ID : 2
Format : AAC
Format/Info : Advanced Audio Codec
Format profile : LC
Codec ID : 40
Duration : 34mn 3s
Bit rate mode : Constant
Bit rate : 64.0 Kbps
Channel(s) : 1 channel
Channel positions : Front: C
Sampling rate : 44.1 KHz
Compression mode : Lossy
Stream size : 15.6 MiB (25%)
Language : English
Encoded date : UTC 2008-08-28 00:30:02
Tagged date : UTC 2008-08-28 00:30:23
General
Complete name : G:\Films\My Torrents\FXPHD C4D202 - Cinema4D and After Effects in Production\FXPHD_C4D202_CGP\Classes\c4d202-class07.mov
Format : MPEG-4
Format profile : QuickTime
Codec ID : qt
File size : 115 MiB
Duration : 49mn 7s
Overall bit rate : 327 Kbps
Encoded date : UTC 2008-09-02 16:30:53
Tagged date : UTC 2008-09-02 16:31:06
Writing library : Apple QuickTime
Video
ID : 1
Format : AVC
Format/Info : Advanced Video Codec
Format profile : [email protected]
Format settings, CABAC : No
Format settings, ReFrames : 2 frames
Codec ID : avc1
Codec ID/Info : Advanced Video Coding
Duration : 49mn 7s
Bit rate : 260 Kbps
Width : 1 152 pixels
Height : 720 pixels
Display aspect ratio : 1.600
Frame rate mode : Constant
Frame rate : 12.000 fps
Color space : YUV
Chroma subsampling : 4:2:0
Bit depth : 8 bits
Scan type : Progressive
Bits/(Pixel*Frame) : 0.026
Stream size : 91.3 MiB (79%)
Language : English
Encoded date : UTC 2008-09-02 16:30:49
Tagged date : UTC 2008-09-02 16:31:06
Color primaries : BT.709-5, BT.1361, IEC 61966-2-4, SMPTE RP177
Transfer characteristics : BT.709-5, BT.1361
Matrix coefficients : BT.709-5, BT.1361, IEC 61966-2-4 709, SMPTE RP177
Audio
ID : 2
Format : AAC
Format/Info : Advanced Audio Codec
Format profile : LC
Codec ID : 40
Duration : 49mn 7s
Source duration : 49mn 7s
Bit rate mode : Constant
Bit rate : 64.0 Kbps
Channel(s) : 1 channel
Channel positions : Front: C
Sampling rate : 44.1 KHz
Compression mode : Lossy
Stream size : 22.5 MiB (20%)
Source stream size : 22.5 MiB (20%)
Language : English
Encoded date : UTC 2008-09-02 16:30:49
Tagged date : UTC 2008-09-02 16:31:06
General
Complete name : G:\Films\My Torrents\FXPHD C4D202 - Cinema4D and After Effects in Production\FXPHD_C4D202_CGP\Classes\c4d202-class08.mov
Format : MPEG-4
Format profile : QuickTime
Codec ID : qt
File size : 95.9 MiB
Duration : 47mn 49s
Overall bit rate : 280 Kbps
Encoded date : UTC 2008-09-09 23:55:38
Tagged date : UTC 2008-09-09 23:56:22
Writing library : Apple QuickTime
Video
ID : 1
Format : AVC
Format/Info : Advanced Video Codec
Format profile : [email protected]
Format settings, CABAC : No
Format settings, ReFrames : 2 frames
Codec ID : avc1
Codec ID/Info : Advanced Video Coding
Duration : 47mn 49s
Bit rate : 213 Kbps
Width : 1 152 pixels
Height : 720 pixels
Display aspect ratio : 1.600
Frame rate mode : Constant
Frame rate : 12.000 fps
Color space : YUV
Chroma subsampling : 4:2:0
Bit depth : 8 bits
Scan type : Progressive
Bits/(Pixel*Frame) : 0.021
Stream size : 72.8 MiB (76%)
Language : English
Encoded date : UTC 2008-09-09 23:55:32
Tagged date : UTC 2008-09-09 23:56:22
Color primaries : BT.709-5, BT.1361, IEC 61966-2-4, SMPTE RP177
Transfer characteristics : BT.709-5, BT.1361
Matrix coefficients : BT.709-5, BT.1361, IEC 61966-2-4 709, SMPTE RP177
Audio
ID : 2
Format : AAC
Format/Info : Advanced Audio Codec
Format profile : LC
Codec ID : 40
Duration : 47mn 49s
Source duration : 47mn 49s
Bit rate mode : Constant
Bit rate : 64.0 Kbps
Channel(s) : 1 channel
Channel positions : Front: C
Sampling rate : 44.1 KHz
Compression mode : Lossy
Stream size : 21.9 MiB (23%)
Source stream size : 21.9 MiB (23%)
Language : English
Encoded date : UTC 2008-09-09 23:55:33
Tagged date : UTC 2008-09-09 23:56:22
General
Complete name : G:\Films\My Torrents\FXPHD C4D202 - Cinema4D and After Effects in Production\FXPHD_C4D202_CGP\Classes\c4d202-class09.mov
Format : MPEG-4
Format profile : QuickTime
Codec ID : qt
File size : 72.6 MiB
Duration : 38mn 44s
Overall bit rate : 262 Kbps
Encoded date : UTC 2008-09-18 21:15:47
Tagged date : UTC 2008-09-18 21:15:57
Writing library : Apple QuickTime
Video
ID : 1
Format : AVC
Format/Info : Advanced Video Codec
Format profile : [email protected]
Format settings, CABAC : No
Format settings, ReFrames : 2 frames
Codec ID : avc1
Codec ID/Info : Advanced Video Coding
Duration : 38mn 44s
Bit rate : 195 Kbps
Width : 1 152 pixels
Height : 720 pixels
Display aspect ratio : 1.600
Frame rate mode : Constant
Frame rate : 12.000 fps
Color space : YUV
Chroma subsampling : 4:2:0
Bit depth : 8 bits
Scan type : Progressive
Bits/(Pixel*Frame) : 0.020
Stream size : 54.0 MiB (74%)
Language : English
Encoded date : UTC 2008-09-18 21:15:44
Tagged date : UTC 2008-09-18 21:15:57
Color primaries : BT.709-5, BT.1361, IEC 61966-2-4, SMPTE RP177
Transfer characteristics : BT.709-5, BT.1361
Matrix coefficients : BT.709-5, BT.1361, IEC 61966-2-4 709, SMPTE RP177
Audio
ID : 2
Format : AAC
Format/Info : Advanced Audio Codec
Format profile : LC
Codec ID : 40
Duration : 38mn 44s
Source duration : 38mn 44s
Bit rate mode : Constant
Bit rate : 64.0 Kbps
Channel(s) : 1 channel
Channel positions : Front: C
Sampling rate : 44.1 KHz
Compression mode : Lossy
Stream size : 17.7 MiB (24%)
Source stream size : 17.7 MiB (24%)
Language : English
Encoded date : UTC 2008-09-18 21:15:44
Tagged date : UTC 2008-09-18 21:15:57
General
Complete name : G:\Films\My Torrents\FXPHD C4D202 - Cinema4D and After Effects in Production\FXPHD_C4D202_CGP\Classes\c4d202-class10.mov
Format : MPEG-4
Format profile : QuickTime
Codec ID : qt
File size : 62.2 MiB
Duration : 31mn 22s
Overall bit rate : 277 Kbps
Encoded date : UTC 2008-09-23 16:55:14
Tagged date : UTC 2008-09-23 16:55:32
Writing library : Apple QuickTime
Video
ID : 1
Format : AVC
Format/Info : Advanced Video Codec
Format profile : [email protected]
Format settings, CABAC : No
Format settings, ReFrames : 2 frames
Codec ID : avc1
Codec ID/Info : Advanced Video Coding
Duration : 31mn 22s
Bit rate : 210 Kbps
Width : 1 152 pixels
Height : 720 pixels
Display aspect ratio : 1.600
Frame rate mode : Constant
Frame rate : 12.000 fps
Color space : YUV
Chroma subsampling : 4:2:0
Bit depth : 8 bits
Scan type : Progressive
Bits/(Pixel*Frame) : 0.021
Stream size : 47.1 MiB (76%)
Language : English
Encoded date : UTC 2008-09-23 16:55:11
Tagged date : UTC 2008-09-23 16:55:32
Color primaries : BT.709-5, BT.1361, IEC 61966-2-4, SMPTE RP177
Transfer characteristics : BT.709-5, BT.1361
Matrix coefficients : BT.709-5, BT.1361, IEC 61966-2-4 709, SMPTE RP177
Audio
ID : 2
Format : AAC
Format/Info : Advanced Audio Codec
Format profile : LC
Codec ID : 40
Duration : 31mn 22s
Source duration : 31mn 22s
Bit rate mode : Constant
Bit rate : 64.0 Kbps
Channel(s) : 1 channel
Channel positions : Front: C
Sampling rate : 44.1 KHz
Compression mode : Lossy
Stream size : 14.4 MiB (23%)
Source stream size : 14.4 MiB (23%)
Language : English
Encoded date : UTC 2008-09-23 16:55:11
Tagged date : UTC 2008-09-23 16:55:32

Создавать темы 07-Янв-2013 15:42

[Профиль]  [ЛС] 

mirsaidbek

Стаж: 5 лет 7 месяцев

Сообщений: 2

[fxphd] C4D202 - Cinema4D and After Effects in Production [2009, ENG] shto eta !

Создавать темы 23-Янв-2013 20:42

[Профиль]  [ЛС] 

Mac

Стаж: 7 лет 3 месяца

Сообщений: 21

где необут есть силка этого учебника на тас иксе или толка официальном сайте

Создавать темы 13-Сен-2013 02:43

[Профиль]  [ЛС] 
Показать сообщения:    
Ответить на тему

Текущее время: 24-Окт 07:08

Часовой пояс: UTC + 5



Вы не можете начинать темы
Вы не можете отвечать на сообщения
Вы не можете редактировать свои сообщения
Вы не можете удалять свои сообщения
Вы не можете голосовать в опросах
Вы не можете прикреплять файлы к сообщениям
Вы не можете скачивать файлы